<?xml version="1.0" standalone="no"?>
<!DOCTYPE svg PUBLIC "-//W3C//DTD SVG 1.1//EN" "http://www.w3.org/Graphics/SVG/1.1/DTD/svg11.dtd" >
<svg xmlns="http://www.w3.org/2000/svg" xmlns:xlink="http://www.w3.org/1999/xlink" version="1.1">
<metadata>
Created by FontForge 20170731 at Tue Jul 14 08:14:51 2020
 By Aleksey,,,
Copyright (c) 2020 by Bagas Ardiatma. All rights reserved.
</metadata>
<defs>
<font id="Causten-Black" horiz-adv-x="560" >
  <font-face 
    font-family="Causten-Black"
    font-weight="400"
    font-stretch="normal"
    units-per-em="1000"
    panose-1="0 0 10 0 0 0 0 0 0 0"
    ascent="772"
    descent="-228"
    x-height="460"
    cap-height="650"
    bbox="-420 -200 1302 891"
    underline-thickness="50"
    underline-position="-150"
    unicode-range="U+0020-25CA"
  />
<missing-glyph horiz-adv-x="475" 
d="M88 -200v950h302v-950h-302zM316 -5v107h-157v-107h157zM159 -27v-31h66l-66 -45v-31h157v31h-97l67 45h30v31h-157zM316 159v107h-95v-53h33v22h31v-45h-95v76h-31v-107h157zM159 564v-99h157v32h-62v67h-95zM316 589v31h-62v35h62v31h-156v-31h61v-35h-62v-31h157z
M159 373v-31h95v66h62v31h-157v-31h62v-35h-62zM159 320v-33h157v95h-31v-62h-126zM190 71h95v-45h-95v45zM190 532h31v-35h-31v35z" />
    <glyph glyph-name="f_f" unicode="ff" horiz-adv-x="680" 
d="M67 0v340h-57v120h57v26q0 164 160 164h91v-123h-39q-52 0 -52 -51v-16h166v26q0 164 150 164h112v-123h-50q-52 0 -52 -51v-16h91v-120h-91v-340h-160v340h-166v-340h-160z" />
    <glyph glyph-name="t_t.liga" unicode="tt" horiz-adv-x="673" 
d="M217 0q-150 0 -150 148v192h-57v120h57v142h160v-142h166v142h160v-142h90v-120h-90v-165q0 -9 1 -17t4 -13t5 -9t7 -6.5t7.5 -4t9 -2t9 -0.5h9.5h8h25v-123h-95q-150 0 -150 148v192h-166v-165q0 -9 1 -17t4 -13t5 -9t7 -6.5t7.5 -4t9 -2t9 -0.5h9.5h8h25v-123h-95z" />
    <glyph glyph-name=".notdef" horiz-adv-x="475" 
d="M88 -200v950h302v-950h-302zM316 -5v107h-157v-107h157zM159 -27v-31h66l-66 -45v-31h157v31h-97l67 45h30v31h-157zM316 159v107h-95v-53h33v22h31v-45h-95v76h-31v-107h157zM159 564v-99h157v32h-62v67h-95zM316 589v31h-62v35h62v31h-156v-31h61v-35h-62v-31h157z
M159 373v-31h95v66h62v31h-157v-31h62v-35h-62zM159 320v-33h157v95h-31v-62h-126zM190 71h95v-45h-95v45zM190 532h31v-35h-31v35z" />
    <glyph glyph-name=".null" horiz-adv-x="0" 
 />
    <glyph glyph-name="uni000D" horiz-adv-x="333" 
 />
    <glyph glyph-name="space" unicode=" " horiz-adv-x="200" 
 />
    <glyph glyph-name="exclam" unicode="!" horiz-adv-x="245" 
d="M185 650l-11 -445h-144l-10 445h165zM44 134q23 23 59 23q35 0 58.5 -23.5t23.5 -58.5q0 -36 -23.5 -59.5t-58.5 -23.5q-36 0 -59.5 23.5t-23.5 59.5q0 35 24 59z" />
    <glyph glyph-name="quotedbl" unicode="&#x22;" horiz-adv-x="415" 
d="M245 650h150l-22 -210h-113zM20 650h150l-22 -210h-113z" />
    <glyph glyph-name="numbersign" unicode="#" horiz-adv-x="732" 
d="M130 256l26 120h-98v140h128l29 131h150l-29 -131h131l29 131h150l-29 -131h75v-140h-105l-26 -120h93v-140h-124l-26 -119h-150l26 119h-131l-26 -119h-150l26 119h-79v140h110zM411 256l26 120h-131l-26 -120h131z" />
    <glyph glyph-name="dollar" unicode="$" horiz-adv-x="621" 
d="M177 248q9 -19 52 -48t80 -29q28 0 41 6t13 23q0 8 -5.5 15t-17 12t-22 9t-26 9t-24.5 8q-2 1 -19.5 7t-28 10.5t-30.5 14t-34 19t-30.5 24.5t-27 31t-17.5 37.5t-7 45.5q0 71 41 115t109 60v75h154v-75q62 -14 112.5 -47t70.5 -71l-129 -86q-15 21 -55 44t-73 23
q-40 0 -40 -27q0 -7 3 -13t9.5 -11.5t12.5 -9.5t16.5 -8.5t17.5 -7t19 -7t17 -6.5q2 -1 20 -7.5t28 -10.5t30.5 -13.5t33.5 -18.5t30 -23.5t26.5 -29.5t16.5 -35.5t7 -43.5q0 -76 -46.5 -123.5t-126.5 -61.5v-73h-154v76q-68 14 -117 49t-67 85z" />
    <glyph glyph-name="percent" unicode="%" horiz-adv-x="889" 
d="M547 280q46 47 118 47q71 0 117.5 -47.5t46.5 -121.5q0 -72 -46.5 -119.5t-117.5 -47.5q-72 0 -118.5 47.5t-46.5 119.5q0 74 47 122zM40 489q0 74 46.5 121.5t118.5 47.5q71 0 117.5 -47.5t46.5 -121.5q0 -72 -46.5 -119.5t-117.5 -47.5q-72 0 -118.5 47.5t-46.5 119.5z
M550 650h120l-351 -650h-120zM159 443q17 -19 46 -19t45.5 18.5t16.5 46.5q0 29 -16.5 48t-45.5 19t-46 -19t-17 -48q0 -27 17 -46zM602 158q0 -27 17 -46t46 -19t45.5 18.5t16.5 46.5q0 29 -16.5 48t-45.5 19t-46 -19t-17 -48z" />
    <glyph glyph-name="ampersand" unicode="&#x26;" horiz-adv-x="668" 
d="M68 266q28 43 95 89q-25 30 -37.5 48t-24.5 47t-12 59q0 60 48.5 104.5t133.5 44.5q84 0 133 -45.5t49 -105.5q0 -109 -118 -185l91 -110q27 49 27 104v6h120v-7q0 -108 -69 -197l104 -125h-150l-38 47q-73 -48 -151 -48q-109 0 -169 50t-60 129q0 52 28 95zM190 171
q0 -22 20 -40.5t61 -18.5q34 0 73 21l-103 127q-51 -44 -51 -89zM214 498q0 -14 7.5 -30t13.5 -23t25 -31q68 43 68 84q0 26 -16.5 40.5t-40.5 14.5t-40.5 -15t-16.5 -40z" />
    <glyph glyph-name="quotesingle" unicode="'" horiz-adv-x="190" 
d="M35 440l-15 210h150l-22 -210h-113z" />
    <glyph glyph-name="parenleft" unicode="(" horiz-adv-x="309" 
d="M20 322q0 234 88 370h160q-61 -83 -77.5 -190t-16.5 -179t17 -180.5t78 -190.5h-161q-88 135 -88 370z" />
    <glyph glyph-name="parenright" unicode=")" horiz-adv-x="319" 
d="M30 -48q61 82 78 190.5t17 180.5t-16.5 179t-77.5 190h160q58 -89 73.5 -194.5t16.5 -176.5q-1 -70 -16.5 -175.5t-73.5 -193.5h-161z" />
    <glyph glyph-name="asterisk" unicode="*" horiz-adv-x="381" 
d="M20 438l93 52l-90 57l44 68l81 -51v86h85v-92l86 49l42 -68l-91 -52l89 -56l-44 -68l-82 52v-88h-85v92l-86 -49z" />
    <glyph glyph-name="plus" unicode="+" horiz-adv-x="520" 
d="M185 386v145h130v-145h145v-130h-145v-145h-130v145h-145v130h145z" />
    <glyph glyph-name="comma" unicode="," horiz-adv-x="234" 
d="M20 -114l44 210h150l-81 -210h-113z" />
    <glyph glyph-name="hyphen" unicode="-" horiz-adv-x="404" 
d="M40 190v150h304v-150h-304z" />
    <glyph glyph-name="period" unicode="." horiz-adv-x="204" 
d="M20 74q0 36 23 58.5t59 22.5t59 -22.5t23 -58.5t-23 -59t-59 -23t-59 23t-23 59z" />
    <glyph glyph-name="slash" unicode="/" horiz-adv-x="407" 
d="M20 -47l212 739h155l-212 -739h-155z" />
    <glyph glyph-name="zero" unicode="0" horiz-adv-x="645" 
d="M30 325q0 146 79 239.5t206 93.5t208.5 -94t81.5 -239t-81 -239q-82 -94 -209 -94t-206 93.5t-79 239.5zM195 325q0 -84 36 -128q36 -45 84 -45t84 44.5t36 128.5t-36 126t-84 42t-84 -42t-36 -126z" />
    <glyph glyph-name="one" unicode="1" horiz-adv-x="371" 
d="M146 0v500h-136v150h301v-650h-165z" />
    <glyph glyph-name="two" unicode="2" horiz-adv-x="522" 
d="M44 550q17 25 44.5 51t72 42.5t96.5 16.5q109 0 171.5 -55.5t62.5 -147.5q0 -34 -14 -71t-31 -64t-47 -60t-46.5 -48.5t-44.5 -40.5l-26 -23h210v-150h-464l-1 134l82 71q51 44 73 64t62.5 59.5t58 68t17.5 50.5q0 24 -15 40t-48 16q-35 0 -58.5 -22t-31.5 -49l-147 70
q7 23 24 48z" />
    <glyph glyph-name="three" unicode="3" horiz-adv-x="569" 
d="M121 206q19 -21 55.5 -37.5t80.5 -16.5q47 0 74.5 19t27.5 53t-28 55t-74 21q-49 0 -115 -18l2 116l132 102h-211v150h441v-139l-116 -101q134 -47 134 -186q0 -62 -23.5 -108.5t-62.5 -72.5t-84.5 -38.5t-96.5 -12.5q-75 0 -140.5 29t-96.5 73z" />
    <glyph glyph-name="four" unicode="4" horiz-adv-x="607" 
d="M20 206l316 444h164v-429h77v-118h-77v-103h-164v103h-316v103zM180 221h156v221z" />
    <glyph glyph-name="five" unicode="5" horiz-adv-x="562" 
d="M126 205q52 -53 120 -53q42 0 74 15t32 53q0 37 -33.5 53.5t-78.5 16.5q-61 0 -109 -21l-53 80l59 301h353v-150h-224l-17 -77q137 -1 202.5 -60.5t65.5 -152.5q0 -104 -73 -161t-186 -57q-143 0 -238 95z" />
    <glyph glyph-name="six" unicode="6" horiz-adv-x="556" 
d="M30 234q0 69 46 144l170 272h177l-111 -177q88 -14 143.5 -81.5t55.5 -157.5q0 -100 -68 -171q-69 -71 -172 -71t-172 71t-69 171zM209 172q23 -25 62 -25q37 0 61 24.5t24 62.5t-24 63.5t-61 25.5q-38 0 -62 -25.5t-24 -63.5t24 -62z" />
    <glyph glyph-name="seven" unicode="7" horiz-adv-x="489" 
d="M37 0l230 500h-247v150h439v-108l-250 -542h-172z" />
    <glyph glyph-name="eight" unicode="8" horiz-adv-x="565" 
d="M117 339q-75 53 -75 139q0 71 60 127t174 56q113 0 172.5 -56t59.5 -127q0 -85 -74 -139q86 -53 86 -146q0 -90 -63 -147t-181 -57q-119 0 -182.5 57t-63.5 147q0 92 87 146zM188 202q0 -31 24 -55t64 -24t63 23t23 56q0 34 -23 56.5t-63 22.5q-41 0 -64.5 -22.5
t-23.5 -56.5zM193 467q0 -30 21.5 -52t61.5 -22q39 0 60 22t21 52t-21 52t-60 22q-40 0 -61.5 -22t-21.5 -52z" />
    <glyph glyph-name="nine" unicode="9" horiz-adv-x="556" 
d="M99 587q68 71 171 71t172 -71t69 -171q0 -70 -46 -144l-170 -272h-177l109 178q-87 14 -142 81t-55 157q0 100 69 171zM185 416q0 -38 24 -63.5t61 -25.5q38 0 62 25.5t24 63.5t-23.5 62.5t-62.5 24.5q-37 0 -61 -24.5t-24 -62.5z" />
    <glyph glyph-name="colon" unicode=":" horiz-adv-x="224" 
d="M43 133q23 22 59 22t59 -22.5t23 -58.5t-23 -59t-59 -23t-59 23t-23 59t23 59zM43 438q23 22 59 22t59 -22.5t23 -58.5t-23 -59t-59 -23t-59 23t-23 59t23 59z" />
    <glyph glyph-name="semicolon" unicode=";" horiz-adv-x="254" 
d="M64 96h150l-81 -210h-113zM73 436q24 24 58 24t58 -24t24 -58t-24 -58t-58 -24t-58 24t-24 58t24 58z" />
    <glyph glyph-name="less" unicode="&#x3c;" horiz-adv-x="430" 
d="M40 383l330 122v-120l-172 -63l172 -64v-120l-330 122v123z" />
    <glyph glyph-name="equal" unicode="=" horiz-adv-x="521" 
d="M461 275v-121h-421v121h421zM40 370v120h421v-120h-421z" />
    <glyph glyph-name="greater" unicode="&#x3e;" horiz-adv-x="430" 
d="M370 383v-123l-330 -122v120l172 64l-172 63v120z" />
    <glyph glyph-name="question" unicode="?" horiz-adv-x="513" 
d="M10 512q26 63 84 106t146 43q100 0 161.5 -46.5t61.5 -133.5q0 -35 -12 -66t-22 -44.5t-29 -34.5q-27 -29 -34.5 -38t-21.5 -27t-18 -29t-4 -23v-14h-165v14q0 80 66 146l30 30q4 4 12 13t11.5 15t8 14t6 15t1.5 15q0 17 -12 30.5t-40 13.5q-29 0 -54 -20.5t-36 -47.5z
M182 134q23 23 59 23t59.5 -23.5t23.5 -59.5q0 -35 -23 -58q-24 -24 -60 -24t-59 23.5t-23 58.5q0 36 23 60z" />
    <glyph glyph-name="at" unicode="@" horiz-adv-x="796" 
d="M141 579q101 101 248 101q145 0 246 -99t101 -243q0 -41 -7.5 -76.5t-23.5 -68t-47 -51.5t-74 -19q-46 0 -82 21t-53 60q-30 -47 -90 -47q-49 0 -92.5 42t-43.5 120t43.5 119.5t92.5 41.5t77 -30v25h100v-189q0 -81 48 -81q52 0 52 133q0 52 -15 94t-39 69t-57 45
t-66.5 26t-69.5 8q-95 0 -172 -68.5t-77 -189.5q0 -61 22.5 -112t59.5 -82t80 -47.5t87 -16.5q69 0 117 25l50 -92q-66 -33 -167 -33q-149 0 -249 103.5t-100 254.5q0 155 101 257zM339 275q15 -18 41 -18t41 17.5t15 44.5t-15 44t-41 17t-41.5 -17t-15.5 -44t16 -44z" />
    <glyph glyph-name="A" unicode="A" horiz-adv-x="677" 
d="M10 0l261 650h125l261 -650h-175l-28 72h-241l-28 -72h-175zM396 222l-63 164l-63 -164h126z" />
    <glyph glyph-name="B" unicode="B" horiz-adv-x="604" 
d="M40 0v650h306q80 0 137 -50.5t57 -139.5q0 -82 -52 -124q76 -47 76 -143q0 -88 -61 -140.5t-142 -52.5h-321zM205 266v-116h129q28 0 44 16.5t16 41.5q0 24 -17 41t-43 17h-129zM317 401q24 0 38.5 13t14.5 37t-14.5 36.5t-38.5 12.5h-112v-99h112z" />
    <glyph glyph-name="C" unicode="C" horiz-adv-x="657" 
d="M123 564q92 94 236 94q172 0 263 -131l-132 -99q-20 27 -55 46t-76 19q-73 0 -118.5 -47t-45.5 -121t45.5 -121t118.5 -47q40 0 74.5 21t56.5 48l132 -103q-91 -131 -263 -131q-144 0 -236.5 94t-92.5 239t93 239z" />
    <glyph glyph-name="D" unicode="D" horiz-adv-x="658" 
d="M40 0v650h254q142 0 230.5 -90t88.5 -235t-88.5 -235t-230.5 -90h-254zM205 160h89q12 0 26.5 2t39 11.5t43 25.5t32 49t13.5 77t-14 76.5t-32.5 49t-42.5 26t-38.5 11.5t-26.5 2h-89v-330z" />
    <glyph glyph-name="E" unicode="E" horiz-adv-x="548" 
d="M493 650v-150h-288v-100h267v-150h-267v-100h288v-150h-453v650h453z" />
    <glyph glyph-name="F" unicode="F" horiz-adv-x="552" 
d="M497 650v-155h-292v-117h273v-155h-273v-223h-165v650h457z" />
    <glyph glyph-name="G" unicode="G" horiz-adv-x="721" 
d="M123 564q92 94 236 94q85 0 152.5 -34.5t110.5 -95.5l-133 -99q-47 64 -130 64q-73 0 -118.5 -47t-45.5 -121t45.5 -121t118.5 -47q39 0 73.5 19.5t47.5 57.5h-131v150h322v-74q-5 -141 -89 -229.5t-223 -88.5q-144 0 -236.5 94t-92.5 239t93 239z" />
    <glyph glyph-name="H" unicode="H" horiz-adv-x="657" 
d="M205 650v-245h227v245h165v-650h-165v245h-227v-245h-165v650h165z" />
    <glyph glyph-name="I" unicode="I" horiz-adv-x="265" 
d="M40 0v650h165v-650h-165z" />
    <glyph glyph-name="J" unicode="J" horiz-adv-x="536" 
d="M181 226q10 -74 65 -74q31 0 48 20t17 55v423h165v-447q0 -99 -63.5 -155t-166.5 -56q-98 0 -155.5 48.5t-70.5 128.5z" />
    <glyph glyph-name="K" unicode="K" horiz-adv-x="590" 
d="M205 650v-244l166 244h186l-215 -325l228 -325h-190l-175 247v-247h-165v650h165z" />
    <glyph glyph-name="L" unicode="L" horiz-adv-x="531" 
d="M40 0v650h165v-500h286v-150h-451z" />
    <glyph glyph-name="M" unicode="M" horiz-adv-x="770" 
d="M205 650l170 -339l170 339h165v-650h-165v310l-113 -239h-114l-113 239v-310h-165v650h165z" />
    <glyph glyph-name="N" unicode="N" horiz-adv-x="647" 
d="M200 650l222 -355v355h165v-650h-160l-222 354v-354h-165v650h160z" />
    <glyph glyph-name="O" unicode="O" horiz-adv-x="731" 
d="M30 325q0 145 92.5 239t236.5 94t235.5 -94t91.5 -239t-91 -239q-92 -94 -236 -94t-236.5 94t-92.5 239zM195 325q0 -74 46 -121q45 -47 118 -47t117.5 47t44.5 121t-44.5 121t-117.5 47t-118.5 -47t-45.5 -121z" />
    <glyph glyph-name="P" unicode="P" horiz-adv-x="595" 
d="M40 0v650h309q80 0 143 -58.5t63 -165.5t-63 -166t-143 -59h-144v-201h-165zM205 361h114q28 0 49.5 17t21.5 48q0 32 -20.5 48t-48.5 16h-116v-129z" />
    <glyph glyph-name="Q" unicode="Q" horiz-adv-x="731" 
d="M30 325q0 144 94 238.5t235 94.5q145 0 236 -93.5t91 -239.5q0 -84 -32.5 -153t-90.5 -114l104 -140h-197l-58 78q-23 -4 -53 -4q-144 0 -236.5 94t-92.5 239zM195 325q0 -74 46 -121q45 -47 118 -47t117.5 47t44.5 121t-44.5 121t-117.5 47t-118.5 -47t-45.5 -121z" />
    <glyph glyph-name="R" unicode="R" horiz-adv-x="620" 
d="M40 0v650h319q80 0 143 -58.5t63 -165.5q0 -75 -32 -126.5t-84 -77.5l131 -222h-190l-118 201h-67v-201h-165zM331 361q28 0 48.5 16.5t20.5 48.5t-20.5 48t-48.5 16h-126v-129h126z" />
    <glyph glyph-name="S" unicode="S" horiz-adv-x="615" 
d="M152 247q18 -26 69.5 -60t106.5 -34q38 0 50 10.5t12 27.5q0 9 -9 17.5t-24.5 15.5t-31 12t-35 11t-29.5 10q-3 1 -30 10.5t-45 16.5t-46.5 24t-46.5 36t-31.5 49t-13.5 65q0 54 22.5 95t60.5 64t83 34t95 11q91 0 166 -45.5t96 -100.5l-129 -87q-17 22 -60.5 45
t-93.5 23t-50 -30q0 -10 8.5 -19.5t23.5 -16.5t30 -12t34 -11t29 -10q2 -1 24.5 -9t37 -14.5t39.5 -18.5t41.5 -26.5t34 -33.5t26.5 -44t9 -53q0 -102 -72.5 -156.5t-193.5 -54.5q-108 0 -184.5 49.5t-104.5 113.5z" />
    <glyph glyph-name="T" unicode="T" horiz-adv-x="592" 
d="M20 650h532v-150h-183v-500h-165v500h-184v150z" />
    <glyph glyph-name="U" unicode="U" horiz-adv-x="614" 
d="M205 650v-399q0 -54 26.5 -76.5t65.5 -22.5t65.5 22.5t26.5 76.5v399h165v-418q0 -100 -68 -170q-69 -70 -189 -70t-188.5 70t-68.5 170v418h165z" />
    <glyph glyph-name="V" unicode="V" horiz-adv-x="663" 
d="M10 650h175l141 -373l142 373h175l-251 -650h-131z" />
    <glyph glyph-name="W" unicode="W" horiz-adv-x="953" 
d="M10 650h175l116 -351l115 351h121l111 -329l110 329h175l-217 -650h-142l-102 309l-103 -309h-142z" />
    <glyph glyph-name="X" unicode="X" horiz-adv-x="656" 
d="M10 0l213 325l-213 325h190l118 -180l118 180h190l-213 -325l213 -325h-190l-118 180l-118 -180h-190z" />
    <glyph glyph-name="Y" unicode="Y" horiz-adv-x="649" 
d="M194 650l123 -208l123 208h189l-229 -380v-270h-165v268l-230 382h189z" />
    <glyph glyph-name="Z" unicode="Z" horiz-adv-x="544" 
d="M30 0v137l265 362h-259v151h468v-138l-268 -361l263 -1v-150h-469z" />
    <glyph glyph-name="bracketleft" unicode="[" horiz-adv-x="337" 
d="M277 692v-115h-87v-510h87v-115h-237v740h237z" />
    <glyph glyph-name="backslash" unicode="\" horiz-adv-x="407" 
d="M232 -48l-212 739h155l212 -739h-155z" />
    <glyph glyph-name="bracketright" unicode="]" horiz-adv-x="337" 
d="M277 692v-740h-237v115h87v510h-87v115h237z" />
    <glyph glyph-name="asciicircum" unicode="^" horiz-adv-x="466" 
d="M155 650h132l119 -328h-120l-64 177l-62 -177h-120z" />
    <glyph glyph-name="underscore" unicode="_" horiz-adv-x="452" 
d="M40 0v150h352v-150h-352z" />
    <glyph glyph-name="grave" unicode="`" horiz-adv-x="233" 
d="M83 527l-63 123h134l59 -123h-130z" />
    <glyph glyph-name="a" unicode="a" 
d="M81 401q61 66 153 66q65 0 106 -36v29h160v-460h-160v28q-43 -36 -106 -36q-92 0 -153 67.5t-61 170.5q0 104 61 171zM175 230q0 -38 23 -63t60 -25t59.5 25t22.5 63t-22.5 62.5t-59.5 24.5t-60 -24.5t-23 -62.5z" />
    <glyph glyph-name="b" unicode="b" 
d="M40 650h160v-219q41 36 106 36q92 0 153 -66.5t61 -170.5q0 -103 -61 -170.5t-153 -67.5q-63 0 -106 36v-28h-160v650zM223 167q22 -25 59 -25t60 25t23 63t-23 62.5t-60 24.5t-59.5 -24.5t-22.5 -62.5t23 -63z" />
    <glyph glyph-name="c" unicode="c" horiz-adv-x="474" 
d="M86 402q66 66 171 66q122 0 187 -93l-114 -89q-28 31 -69 31q-37 0 -61 -24.5t-24 -62.5t24 -63t61 -25q43 0 69 29l114 -86q-65 -94 -187 -94q-105 0 -171 67t-66 172t66 172z" />
    <glyph glyph-name="d" unicode="d" 
d="M81 401q61 66 153 66q65 0 106 -36v219h160v-650h-160v28q-43 -36 -106 -36q-92 0 -153 67.5t-61 170.5q0 104 61 171zM175 230q0 -38 23 -63t60 -25t59.5 25t22.5 63t-22.5 62.5t-59.5 24.5t-60 -24.5t-23 -62.5z" />
    <glyph glyph-name="e" unicode="e" horiz-adv-x="513" 
d="M84 402q63 67 167 67q103 0 162.5 -67t59.5 -172v-42h-297q9 -30 30.5 -46.5t49.5 -16.5q54 0 86 36l108 -80q-30 -43 -81 -67t-113 -24q-106 0 -171 68t-65 172t64 172zM178 287h144q-17 57 -71 57q-52 0 -73 -57z" />
    <glyph glyph-name="f" unicode="f" horiz-adv-x="359" 
d="M67 460v26q0 164 160 164h102v-123h-50q-52 0 -52 -51v-16h91v-120h-91v-340h-160v340h-57v120h57z" />
    <glyph glyph-name="g" unicode="g" 
d="M81 400q60 67 152 67q64 0 107 -37v30h160v-429q0 -103 -64.5 -167t-184.5 -64q-62 0 -113.5 23t-84.5 62l103 87q38 -38 95 -38q9 0 20.5 2.5t28.5 11t28.5 29.5t11.5 52q-43 -37 -107 -37q-92 0 -152.5 67.5t-60.5 170.5t61 170zM175 230q0 -38 23 -63q22 -25 59 -25
t60 25t23 63t-23 62.5t-60 24.5t-59.5 -24.5t-22.5 -62.5z" />
    <glyph glyph-name="h" unicode="h" horiz-adv-x="553" 
d="M40 0v650h160v-223q45 40 116 40q32 0 61 -9t56 -28.5t43.5 -58t16.5 -91.5v-280h-160v254q0 26 -8 44t-21 24.5t-21.5 8.5t-17.5 2q-8 0 -16.5 -2t-21 -8.5t-20 -24.5t-7.5 -44v-254h-160z" />
    <glyph glyph-name="i" unicode="i" horiz-adv-x="270" 
d="M206 460l-1 -460h-160v460h161zM66 654q25 22 59 22t59.5 -22t25.5 -60t-26 -62t-59 -24t-59 24t-26 62t26 60z" />
    <glyph glyph-name="j" unicode="j" horiz-adv-x="279" 
d="M-20 -61h37q2 0 8.5 0.5t8.5 2t7 4t6.5 6.5t4 9t3.5 13t1 17v469h160v-505q0 -61 -38 -100t-120 -39h-78v123zM75 654q25 22 59 22t59.5 -22t25.5 -60q0 -39 -25 -62q-26 -24 -59 -24t-59.5 24t-26.5 62t26 60z" />
    <glyph glyph-name="k" unicode="k" horiz-adv-x="538" 
d="M40 650h160v-346l112 156h185l-157 -218l178 -242h-185l-133 181v-181h-160v650z" />
    <glyph glyph-name="l" unicode="l" horiz-adv-x="261" 
d="M40 0v650h161l-1 -650h-160z" />
    <glyph glyph-name="m" unicode="m" horiz-adv-x="826" 
d="M40 0v460h160v-39q47 46 112 46q91 0 137 -62q52 62 146 62q32 0 60 -9t54 -28.5t41.5 -58t15.5 -91.5v-280h-160v257q0 25 -8 41t-21 21.5t-20 7t-14 1.5t-13.5 -1.5t-19 -7t-20 -21.5t-7.5 -41v-257h-160v257q0 25 -8 41t-21 21.5t-20 7t-14 1.5t-13.5 -1.5t-19 -7
t-20 -21.5t-7.5 -41v-257h-160z" />
    <glyph glyph-name="n" unicode="n" horiz-adv-x="553" 
d="M40 0v460h160v-33q45 40 116 40q32 0 61 -9t56 -28.5t43.5 -58t16.5 -91.5v-280h-160v254q0 26 -8 44t-21 24.5t-21.5 8.5t-17.5 2q-8 0 -16.5 -2t-21 -8.5t-20 -24.5t-7.5 -44v-254h-160z" />
    <glyph glyph-name="o" unicode="o" horiz-adv-x="539" 
d="M20 230q0 105 67.5 172.5t172.5 67.5t172 -67.5t67 -172.5q0 -103 -67 -171q-68 -69 -172 -69t-172 68.5t-68 171.5zM177 230q0 -38 23 -63t60 -25t59.5 25t22.5 63t-22.5 62.5t-59.5 24.5t-60 -24.5t-23 -62.5z" />
    <glyph glyph-name="p" unicode="p" 
d="M40 460h160v-29q43 36 106 36q92 0 153 -67.5t61 -170.5q0 -104 -61 -170.5t-153 -66.5q-65 0 -106 36v-212h-160v644zM223 167q22 -25 59 -25t60 24.5t23 62.5t-23 63t-60 25t-59.5 -25t-22.5 -63t23 -62z" />
    <glyph glyph-name="q" unicode="q" 
d="M20 229q0 103 61 170.5t153 67.5q63 0 106 -36v29h160v-644h-160v212q-41 -36 -106 -36q-92 0 -153 66.5t-61 170.5zM175 229q0 -38 23 -62q23 -25 60 -25t59.5 24.5t22.5 62.5t-22.5 63t-59.5 25t-60 -25t-23 -63z" />
    <glyph glyph-name="r" unicode="r" horiz-adv-x="392" 
d="M200 460v-83q57 88 162 90v-150h-6q-9 0 -17 1q-8 -1 -18 -1.5t-35.5 -7t-42 -19t-30 -39.5t-13.5 -65v-186h-160v460h160z" />
    <glyph glyph-name="s" unicode="s" horiz-adv-x="451" 
d="M118 173q7 -16 42 -39t67 -23q39 0 39 20q0 6 -4.5 11.5t-13.5 9.5t-17 7t-20.5 7t-19.5 7l-18 7q-18 6 -27.5 10.5t-29 14t-31.5 20t-25.5 25.5t-20 33.5t-6.5 40.5q0 74 55.5 110.5t136.5 36.5q73 0 125 -30t74 -71l-102 -68q-13 15 -44.5 31.5t-58.5 16.5
q-31 0 -31 -18q0 -7 4.5 -13t13.5 -10.5t17 -8t22 -7.5l19 -7q1 -1 13 -5t19.5 -7t22 -9.5t24 -13t23 -15t22 -19t17 -22.5t12.5 -27t4 -31q0 -74 -52 -113t-144 -39q-83 0 -139 34t-76 80z" />
    <glyph glyph-name="t" unicode="t" horiz-adv-x="357" 
d="M67 460v142h160v-142h90v-120h-90v-165q0 -9 1 -17t4 -13t5 -9t7 -6.5t7.5 -4t9 -2t9.5 -0.5h42v-123h-94q-151 0 -151 148v192h-57v120h57z" />
    <glyph glyph-name="u" unicode="u" horiz-adv-x="553" 
d="M40 179v281h160v-255q0 -26 8 -44t21 -24.5t21.5 -8.5t17.5 -2q8 0 16.5 2t21 8.5t20 24.5t7.5 44v255h160v-460h-160v32q-45 -40 -116 -40q-32 0 -61 9t-56 28.5t-43.5 58t-16.5 91.5z" />
    <glyph glyph-name="v" unicode="v" horiz-adv-x="549" 
d="M10 460h165l94 -244l95 244h165l-183 -460h-155z" />
    <glyph glyph-name="w" unicode="w" horiz-adv-x="783" 
d="M10 460h165l69 -234l83 234h120l83 -234l68 234h165l-147 -460h-155l-76 222l-75 -222h-155z" />
    <glyph glyph-name="x" unicode="x" horiz-adv-x="543" 
d="M10 0l160 230l-160 230h184l68 -97l67 97h184l-159 -230l159 -230h-184l-67 97l-68 -97h-184z" />
    <glyph glyph-name="y" unicode="y" horiz-adv-x="549" 
d="M175 460l94 -239l95 239h165l-256 -644h-155l73 184l-181 460h165z" />
    <glyph glyph-name="z" unicode="z" horiz-adv-x="420" 
d="M380 460v-118l-158 -212h158v-130h-360v118l157 212h-157v130h360z" />
    <glyph glyph-name="braceleft" unicode="{" horiz-adv-x="388" 
d="M40 272v100h15q15 0 25.5 12.5t10.5 37.5v140q0 70 27.5 100t83.5 30h126v-115h-49q-33 0 -33 -43v-112q0 -74 -60 -100q60 -27 60 -100v-112q0 -43 33 -43h49v-115h-126q-111 0 -111 130v140q0 25 -10.5 37.5t-25.5 12.5h-15z" />
    <glyph glyph-name="bar" unicode="|" horiz-adv-x="250" 
d="M40 -48v740h150v-740h-150z" />
    <glyph glyph-name="braceright" unicode="}" horiz-adv-x="388" 
d="M40 67h49q33 0 33 43v112q0 73 60 100q-60 26 -60 100v112q0 43 -33 43h-49v115h126q56 0 83.5 -30t27.5 -100v-140q0 -25 10.5 -37.5t25.5 -12.5h15v-100h-15q-15 0 -25.5 -12.5t-10.5 -37.5v-140q0 -130 -111 -130h-126v115z" />
    <glyph glyph-name="asciitilde" unicode="~" horiz-adv-x="578" 
d="M79 370q39 51 115 51q26 0 48.5 -8.5t31.5 -16t27 -23.5q33 -31 55 -31q42 0 42 62h120q0 -81 -40.5 -132t-121.5 -51q-61 0 -109 44q-5 4 -11 11l-9 8q-2 2 -6.5 5.5t-7 4t-6.5 1.5t-9 1q-38 0 -38 -58h-120q0 81 39 132z" />
    <glyph glyph-name="exclamdown" unicode="&#xa1;" horiz-adv-x="245" 
d="M31 430h144l10 -430h-165zM45 634q24 24 58 24t58 -24t24 -58t-24 -58.5t-58 -24.5q-35 0 -59 24.5t-24 58.5t25 58z" />
    <glyph glyph-name="cent" unicode="&#xa2;" horiz-adv-x="638" 
d="M93 515q53 79 151 106v76h150v-69q109 -19 184 -126l-136 -89q-45 60 -107 60q-33 0 -61.5 -11.5t-51 -45t-22.5 -86.5q0 -77 41 -110.5t94 -33.5q67 0 107 54l136 -83q-75 -107 -184 -126v-79h-150v86q-98 27 -151 106.5t-53 185.5q0 105 53 185z" />
    <glyph glyph-name="sterling" unicode="&#xa3;" horiz-adv-x="529" 
d="M40 0v120q128 0 128 108q0 24 -6 53h-118v80h92q-28 72 -28 127q0 75 56.5 127t183.5 52q53 0 116 -10v-115q-47 8 -65.5 8.5t-21.5 0.5q-32 0 -53 -6.5t-34 -19.5t-16.5 -26t-3.5 -25q0 -9 2 -24.5t8.5 -38t18.5 -49.5l142 -1v-80h-118q3 -20 3 -38q0 -73 -52 -123h195
v-120h-429z" />
    <glyph glyph-name="currency" unicode="&#xa4;" horiz-adv-x="589" 
d="M120 240q-17 37 -17 83q0 47 18 85l-77 77l81 79l74 -74q39 21 88 21q45 0 85 -19l72 72l83 -75l-76 -78q19 -41 19 -88q0 -49 -18 -86l77 -77l-81 -79l-74 74q-39 -21 -87 -21q-49 0 -91 22l-71 -71l-85 75zM242 273q18 -19 45 -19t45 19t18 50t-18 49.5t-45 18.5
t-45.5 -18.5t-18.5 -49.5t19 -50z" />
    <glyph glyph-name="yen" unicode="&#xa5;" horiz-adv-x="649" 
d="M5 650h189l123 -208l123 208h189l-204 -339h93v-80h-118v-60h118v-80h-118v-91h-165v91h-119v80h119v60h-119v80h93z" />
    <glyph glyph-name="brokenbar" unicode="&#xa6;" horiz-adv-x="250" 
d="M40 374v318h150v-318h-150zM190 268v-316h-150v316h150z" />
    <glyph glyph-name="section" unicode="&#xa7;" horiz-adv-x="463" 
d="M40 96l122 41q5 -27 29.5 -37.5t44.5 -10.5q45 0 45 30q0 31 -56 52q-158 60 -158 151q0 74 54 108q-50 36 -50 101q0 63 46.5 103t116.5 40q65 0 105.5 -29t54.5 -73l-108 -50q-12 32 -52 32q-21 0 -32 -7t-11 -16v-1q0 -5 1 -8.5t12 -12.5t32 -17q3 -1 29 -10t37.5 -14
t34.5 -18.5t34.5 -27.5t21.5 -36t10 -49q0 -79 -57 -114q55 -37 55 -104q0 -42 -16 -73t-42.5 -47t-54 -23t-56.5 -7q-148 0 -192 127zM187 334q0 -18 13 -30.5t34 -12.5q49 0 49 46q0 19 -13.5 30t-35.5 11t-34.5 -12t-12.5 -32z" />
    <glyph glyph-name="dieresis" unicode="&#xa8;" horiz-adv-x="375" 
d="M215 634q0 30 21.5 48.5t48.5 18.5t48.5 -18.5t21.5 -48.5q0 -32 -21 -51q-22 -20 -49 -20t-48.5 19.5t-21.5 51.5zM20 634q0 30 21.5 48.5t48.5 18.5t48.5 -18.5t21.5 -48.5q0 -32 -21 -51q-22 -20 -49 -20t-48.5 19.5t-21.5 51.5z" />
    <glyph glyph-name="copyright" unicode="&#xa9;" horiz-adv-x="758" 
d="M40 325q0 145 92.5 239t236.5 94t236.5 -94t92.5 -239q0 -147 -92 -240t-237 -93q-147 0 -238 93.5t-91 239.5zM121 325q0 -44 14.5 -87t43 -81t78 -61.5t112.5 -23.5q65 0 114.5 23.5t77.5 61.5t42 81t14 87t-14 87t-42 81t-77.5 61.5t-114.5 23.5t-114.5 -23.5
t-77.5 -61.5t-42 -81t-14 -87zM254 453q48 50 124 50q92 0 140 -69l-68 -51q-26 39 -72 39q-10 0 -23 -3.5t-29.5 -12.5t-27.5 -30t-11 -50q0 -30 11 -51t27.5 -30t29.5 -12.5t23 -3.5q44 0 72 37l68 -48q-48 -70 -140 -70q-76 0 -124 51q-48 50 -48 127t48 127z" />
    <glyph glyph-name="guillemotleft" unicode="&#xab;" horiz-adv-x="764" 
d="M342 321l172 186h190l-171 -186l171 -186h-190zM40 321l172 186h190l-171 -186l171 -186h-190z" />
    <glyph glyph-name="logicalnot" unicode="&#xac;" horiz-adv-x="561" 
d="M351 183v125h-311v150h461v-275h-150z" />
    <glyph glyph-name="registered" unicode="&#xae;" horiz-adv-x="756" 
d="M40 325q0 142 93 237.5t236 95.5t235 -95t92 -238t-92 -238t-235 -95t-236 96q-93 95 -93 237zM121 325q0 -33 8.5 -67t27.5 -68t47 -60t70.5 -42t94.5 -16q64 0 113.5 24t77 62.5t41.5 81t14 85.5t-14 85.5t-41.5 81t-77 62.5t-113.5 24q-52 0 -94.5 -16t-70.5 -42
t-47 -60t-27 -68q-9 -34 -9 -67zM232 156v332h164q40 0 72.5 -30.5t32.5 -84.5q0 -75 -59 -104l67 -113h-97l-59 101h-36v-101h-85zM317 407v-67h64q14 0 24.5 8.5t10.5 24.5t-10.5 25t-24.5 9h-64z" />
    <glyph glyph-name="macron" unicode="&#xaf;" horiz-adv-x="252" 
d="M20 550v100h212v-100h-212z" />
    <glyph glyph-name="degree" unicode="&#xb0;" horiz-adv-x="313" 
d="M66 626q35 34 91 34q54 0 90 -35t36 -89t-36 -88.5t-90 -34.5q-56 0 -91.5 34.5t-35.5 88.5q0 55 36 90zM110 536q0 -18 14 -30q14 -13 33 -13t32.5 12.5t13.5 30.5q0 19 -13.5 31.5t-32.5 12.5t-33 -13t-14 -31z" />
    <glyph glyph-name="plusminus" unicode="&#xb1;" horiz-adv-x="459" 
d="M160 439v78h120v-78h119v-100h-119v-79h-120v79h-120v100h120zM40 215h359v-100h-359v100z" />
    <glyph glyph-name="twosuperior" unicode="&#xb2;" horiz-adv-x="335" 
d="M67 629q37 31 96 31q66 0 103.5 -33.5t37.5 -88.5q0 -33 -22.5 -71t-39.5 -55.5t-48 -45.5l-16 -13h127v-91h-280l-1 81l50 43q91 79 113 111q14 21 14 35q0 34 -38 34q-21 0 -35 -13.5t-19 -29.5l-89 42q10 33 47 64z" />
    <glyph glyph-name="threesuperior" unicode="&#xb3;" horiz-adv-x="369" 
d="M81 382q30 -32 82 -32q28 0 45 11t17 32t-17 33.5t-45 12.5q-32 0 -69 -11l1 70l79 62h-127v90h266v-84l-70 -61q81 -28 81 -112q0 -72 -47.5 -106t-113.5 -34q-46 0 -85.5 17.5t-57.5 44.5z" />
    <glyph glyph-name="acute" unicode="&#xb4;" horiz-adv-x="233" 
d="M20 527l59 123h134l-63 -123h-130z" />
    <glyph glyph-name="paragraph" unicode="&#xb6;" horiz-adv-x="650" 
d="M87 600q47 50 120 50h153v-650h-150v299q-80 0 -125 44.5t-45 123.5q0 82 47 133zM440 650h150v-650h-150v650z" />
    <glyph glyph-name="periodcentered" unicode="&#xb7;" horiz-adv-x="204" 
d="M20 326q0 36 23 58.5t59 22.5t59 -22.5t23 -58.5t-23 -59t-59 -23t-59 23t-23 59z" />
    <glyph glyph-name="cedilla" unicode="&#xb8;" horiz-adv-x="212" 
d="M85 -132q37 0 37 17q0 16 -40 16q-34 0 -44 -6l-1 54l31 51h80l-26 -43q70 -15 70 -72q0 -83 -107 -83q-46 0 -65 10v69q18 -13 65 -13z" />
    <glyph glyph-name="onesuperior" unicode="&#xb9;" horiz-adv-x="252" 
d="M92 258v302h-82v90h182v-392h-100z" />
    <glyph glyph-name="guillemotright" unicode="&#xbb;" horiz-adv-x="714" 
d="M488 321l-171 186h185l172 -186l-172 -186h-185zM205 507l172 -186l-172 -186h-185l171 186l-171 186h185z" />
    <glyph glyph-name="onequarter" unicode="&#xbc;" horiz-adv-x="524" 
d="M238 102l156 220h82v-213h38v-58h-38v-51h-82v51h-156v51zM431 650h80l-401 -650h-80zM5 574v76h152v-328h-83v252h-69zM394 109v110l-77 -110h77z" />
    <glyph glyph-name="onehalf" unicode="&#xbd;" horiz-adv-x="575" 
d="M429 650h80l-401 -650h-80zM362 297q29 25 77 25q53 0 83.5 -27t30.5 -72q0 -59 -89 -139l-13 -11h103v-73h-226l-1 65l40 35q24 20 35.5 31t30.5 29.5t28 32.5t9 25q0 27 -31 27q-32 0 -44 -35l-71 35q8 27 38 52zM5 650h152v-328h-83v252h-69v76z" />
    <glyph glyph-name="threequarters" unicode="&#xbe;" horiz-adv-x="576" 
d="M60 429q25 -27 68 -27q51 0 51 36q0 17 -14 27.5t-37 10.5q-25 0 -57 -9l1 57l66 51h-106v75h220v-69l-58 -51q67 -22 67 -92q0 -60 -39 -88t-94 -28q-38 0 -70.5 14.5t-47.5 36.5zM290 51v51l156 220h82v-213h38v-58h-38v-51h-82v51h-156zM479 650h80l-401 -650h-80z
M446 109v110l-77 -110h77z" />
    <glyph glyph-name="questiondown" unicode="&#xbf;" horiz-adv-x="473" 
d="M10 172q0 35 12 66t22 44.5t29 34.5q27 29 34.5 38t21.5 27t18 29t4 23v14h165v-14q0 -80 -66 -146q-24 -25 -35 -37t-22.5 -32.5t-11.5 -37.5q0 -39 52 -39q29 0 54 20.5t36 47.5l140 -69q-26 -63 -84 -106t-146 -43q-100 0 -161.5 46.5t-61.5 133.5zM149 579
q0 35 23.5 58.5t59.5 23.5t59 -23.5t23 -58.5q0 -36 -23 -59q-23 -24 -59 -24t-59.5 23.5t-23.5 59.5z" />
    <glyph glyph-name="Agrave" unicode="&#xc0;" horiz-adv-x="677" 
d="M10 0l261 650h125l261 -650h-175l-28 72h-241l-28 -72h-175zM209 833h134l59 -123h-130zM396 222l-63 164l-63 -164h126z" />
    <glyph glyph-name="Aacute" unicode="&#xc1;" horiz-adv-x="677" 
d="M271 650h125l261 -650h-175l-28 72h-241l-28 -72h-175zM269 710l59 123h134l-63 -123h-130zM396 222l-63 164l-63 -164h126z" />
    <glyph glyph-name="Acircumflex" unicode="&#xc2;" horiz-adv-x="677" 
d="M271 650h125l261 -650h-175l-28 72h-241l-28 -72h-175zM246 833h178l80 -123h-130l-39 69l-39 -69h-130zM396 222l-63 164l-63 -164h126z" />
    <glyph glyph-name="Atilde" unicode="&#xc3;" horiz-adv-x="677" 
d="M10 0l261 650h125l261 -650h-175l-28 72h-241l-28 -72h-175zM185 801q29 38 86 38q48 0 80 -36q21 -23 41 -23q31 0 31 46h90q0 -60 -30 -98t-91 -38q-50 0 -81 36q-21 23 -36 23q-29 0 -29 -46h-90q0 60 29 98zM396 222l-63 164l-63 -164h126z" />
    <glyph glyph-name="Adieresis" unicode="&#xc4;" horiz-adv-x="677" 
d="M271 650h125l261 -650h-175l-28 72h-241l-28 -72h-175zM168 761q0 30 21.5 48.5t48.5 18.5t48.5 -18.5t21.5 -48.5q0 -32 -21 -51q-22 -20 -49 -20t-48.5 19.5t-21.5 51.5zM385 810q21 18 48 18t48.5 -18.5t21.5 -48.5q0 -32 -21 -51q-22 -20 -49 -20t-48.5 19.5
t-21.5 51.5q0 30 22 49zM396 222l-63 164l-63 -164h126z" />
    <glyph glyph-name="Aring" unicode="&#xc5;" horiz-adv-x="677" 
d="M271 650h125l261 -650h-175l-28 72h-241l-28 -72h-175zM257 862q30 28 78 28q49 0 78 -28t29 -73q0 -42 -29 -71q-30 -29 -78 -29t-78 29t-30 71q0 45 30 73zM270 222h126l-63 164zM335 756q35 0 35 33q0 7 -2 13.5t-10.5 13.5t-22.5 7q-34 0 -34 -34q0 -33 34 -33z" />
    <glyph glyph-name="AE" unicode="&#xc6;" horiz-adv-x="982" 
d="M10 0l271 650h646v-150h-256v-100h235v-150h-235v-100h256v-150h-421v250h-217l-104 -250h-175zM506 400v100h-113l-42 -100h155z" />
    <glyph glyph-name="Ccedilla" unicode="&#xc7;" horiz-adv-x="657" 
d="M123 564q92 94 236 94q172 0 263 -131l-132 -99q-20 27 -55 46t-76 19q-73 0 -118.5 -47t-45.5 -121t45.5 -121t118.5 -47q40 0 74.5 21t56.5 48l132 -103q-73 -106 -205 -127l-17 -27q70 -15 70 -72q0 -30 -22 -49.5t-50 -26.5t-61 -7q-46 0 -65 10v69q18 -13 65 -13
q37 0 37 17q0 16 -40 16q-34 0 -44 -6l-1 54l21 34q-125 17 -202.5 107.5t-77.5 222.5q0 145 93 239z" />
    <glyph glyph-name="Egrave" unicode="&#xc8;" horiz-adv-x="548" 
d="M40 0v650h453v-150h-288v-100h267v-150h-267v-100h288v-150h-453zM145 833h134l59 -123h-130z" />
    <glyph glyph-name="Eacute" unicode="&#xc9;" horiz-adv-x="548" 
d="M493 650v-150h-288v-100h267v-150h-267v-100h288v-150h-453v650h453zM205 710l59 123h134l-63 -123h-130z" />
    <glyph glyph-name="Ecircumflex" unicode="&#xca;" horiz-adv-x="548" 
d="M493 650v-150h-288v-100h267v-150h-267v-100h288v-150h-453v650h453zM102 710l80 123h178l80 -123h-130l-39 69l-39 -69h-130z" />
    <glyph glyph-name="Edieresis" unicode="&#xcb;" horiz-adv-x="548" 
d="M493 650v-150h-288v-100h267v-150h-267v-100h288v-150h-453v650h453zM299 761q0 30 21.5 48.5t48.5 18.5t48.5 -18.5t21.5 -48.5q0 -32 -21 -51q-22 -20 -49 -20t-48.5 19.5t-21.5 51.5zM126 810q21 18 48 18t48.5 -18.5t21.5 -48.5q0 -32 -21 -51q-22 -20 -49 -20
t-48.5 19.5t-21.5 51.5q0 30 22 49z" />
    <glyph glyph-name="Igrave" unicode="&#xcc;" horiz-adv-x="265" 
d="M58 710l-63 123h134l59 -123h-130zM40 0v650h165v-650h-165z" />
    <glyph glyph-name="Iacute" unicode="&#xcd;" horiz-adv-x="265" 
d="M55 710l59 123h134l-63 -123h-130zM40 0v650h165v-650h-165z" />
    <glyph glyph-name="Icircumflex" unicode="&#xce;" horiz-adv-x="265" 
d="M40 650h165v-650h-165v650zM-48 710l80 123h178l80 -123h-130l-39 69l-39 -69h-130z" />
    <glyph glyph-name="Idieresis" unicode="&#xcf;" horiz-adv-x="265" 
d="M205 650v-650h-165v650h165zM171 810q21 18 48 18t48.5 -18.5t21.5 -48.5q0 -32 -21 -51q-22 -20 -49 -20t-48.5 19.5t-21.5 51.5q0 30 22 49zM-46 761q0 30 21.5 48.5t48.5 18.5t48.5 -18.5t21.5 -48.5q0 -32 -21 -51q-22 -20 -49 -20t-48.5 19.5t-21.5 51.5z" />
    <glyph glyph-name="Ntilde" unicode="&#xd1;" horiz-adv-x="647" 
d="M200 650l222 -355v355h165v-650h-160l-222 354v-354h-165v650h160zM135 703q0 60 29 98t86 38q48 0 80 -36q21 -23 41 -23q31 0 31 46h90q0 -60 -30 -98t-91 -38q-49 0 -81 36q-21 23 -36 23q-29 0 -29 -46h-90z" />
    <glyph glyph-name="Ograve" unicode="&#xd2;" horiz-adv-x="731" 
d="M30 325q0 145 92.5 239t236.5 94t235.5 -94t91.5 -239t-91 -239q-92 -94 -236 -94t-236.5 94t-92.5 239zM195 325q0 -74 46 -121q45 -47 118 -47t117.5 47t44.5 121t-44.5 121t-117.5 47t-118.5 -47t-45.5 -121zM367 833l59 -123h-130l-63 123h134z" />
    <glyph glyph-name="Oacute" unicode="&#xd3;" horiz-adv-x="731" 
d="M30 325q0 145 92.5 239t236.5 94t235.5 -94t91.5 -239t-91 -239q-92 -94 -236 -94t-236.5 94t-92.5 239zM195 325q0 -74 46 -121q45 -47 118 -47t117.5 47t44.5 121t-44.5 121t-117.5 47t-118.5 -47t-45.5 -121zM352 833h134l-63 -123h-130z" />
    <glyph glyph-name="Ocircumflex" unicode="&#xd4;" horiz-adv-x="731" 
d="M30 325q0 145 92.5 239t236.5 94t235.5 -94t91.5 -239t-91 -239q-92 -94 -236 -94t-236.5 94t-92.5 239zM241 204q45 -47 118 -47t117.5 47t44.5 121t-44.5 121t-117.5 47t-118.5 -47t-45.5 -121t46 -121zM190 710l80 123h178l80 -123h-130l-39 69l-39 -69h-130z" />
    <glyph glyph-name="Otilde" unicode="&#xd5;" horiz-adv-x="731" 
d="M123 564q92 94 236 94t235.5 -94t91.5 -239t-91 -239q-92 -94 -236 -94t-236.5 94t-92.5 239t93 239zM241 204q45 -47 118 -47t117.5 47t44.5 121t-44.5 121t-117.5 47t-118.5 -47t-45.5 -121t46 -121zM180 703q0 60 29 98t86 38q48 0 80 -36q21 -23 41 -23q31 0 31 46
h90q0 -60 -30 -98t-91 -38q-50 0 -81 36q-21 23 -36 23q-29 0 -29 -46h-90z" />
    <glyph glyph-name="Odieresis" unicode="&#xd6;" horiz-adv-x="731" 
d="M123 564q92 94 236 94t235.5 -94t91.5 -239t-91 -239q-92 -94 -236 -94t-236.5 94t-92.5 239t93 239zM241 204q45 -47 118 -47t117.5 47t44.5 121t-44.5 121t-117.5 47t-118.5 -47t-45.5 -121t46 -121zM214 810q21 18 48 18t48.5 -18.5t21.5 -48.5q0 -32 -21 -51
q-22 -20 -49 -20t-48.5 19.5t-21.5 51.5q0 30 22 49zM387 761q0 30 21.5 48.5t48.5 18.5t48.5 -18.5t21.5 -48.5q0 -32 -21 -51q-22 -20 -49 -20t-48.5 19.5t-21.5 51.5z" />
    <glyph glyph-name="multiply" unicode="&#xd7;" horiz-adv-x="534" 
d="M132 107l-92 85l128 128l-128 126l92 90l127 -126l125 125l90 -85l-127 -127l127 -126l-91 -90l-126 125z" />
    <glyph glyph-name="Oslash" unicode="&#xd8;" horiz-adv-x="731" 
d="M359 -8q-91 0 -167 41l-26 -33h-130l76 97q-82 91 -82 228q0 145 92.5 239t236.5 94q88 0 161 -38l30 38h130l-79 -101q85 -91 85 -232q0 -145 -91.5 -239t-235.5 -94zM217 232l198 253q-27 8 -56 8q-76 0 -120 -45.5t-44 -122.5q0 -54 22 -93zM359 157q75 0 118.5 45
t43.5 123q0 56 -24 98l-201 -256q27 -10 63 -10z" />
    <glyph glyph-name="Ugrave" unicode="&#xd9;" horiz-adv-x="614" 
d="M40 650h165v-399q0 -54 26.5 -76.5t65.5 -22.5t65.5 22.5t26.5 76.5v399h165v-418q0 -100 -68 -170q-69 -70 -189 -70t-188.5 70t-68.5 170v418zM171 833h134l59 -123h-130z" />
    <glyph glyph-name="Uacute" unicode="&#xda;" horiz-adv-x="614" 
d="M40 650h165v-399q0 -54 26.5 -76.5t65.5 -22.5t65.5 22.5t26.5 76.5v399h165v-418q0 -100 -68 -170q-69 -70 -189 -70t-188.5 70t-68.5 170v418zM290 833h134l-63 -123h-130z" />
    <glyph glyph-name="Ucircumflex" unicode="&#xdb;" horiz-adv-x="614" 
d="M205 650v-399q0 -54 26.5 -76.5t65.5 -22.5t65.5 22.5t26.5 76.5v399h165v-418q0 -100 -68 -170q-69 -70 -189 -70t-188.5 70t-68.5 170v418h165zM128 710l80 123h178l80 -123h-130l-39 69l-39 -69h-130z" />
    <glyph glyph-name="Udieresis" unicode="&#xdc;" horiz-adv-x="614" 
d="M205 650v-399q0 -54 26.5 -76.5t65.5 -22.5t65.5 22.5t26.5 76.5v399h165v-418q0 -100 -68 -170q-69 -70 -189 -70t-188.5 70t-68.5 170v418h165zM152 810q21 18 48 18t48.5 -18.5t21.5 -48.5q0 -32 -21 -51q-22 -20 -49 -20t-48.5 19.5t-21.5 51.5q0 30 22 49zM325 761
q0 30 21.5 48.5t48.5 18.5t48.5 -18.5t21.5 -48.5q0 -32 -21 -51q-22 -20 -49 -20t-48.5 19.5t-21.5 51.5z" />
    <glyph glyph-name="Yacute" unicode="&#xdd;" horiz-adv-x="649" 
d="M5 650h189l123 -208l123 208h189l-229 -380v-270h-165v268zM251 710l59 123h134l-63 -123h-130z" />
    <glyph glyph-name="germandbls" unicode="&#xdf;" horiz-adv-x="551" 
d="M40 0v427q0 118 68.5 176t170.5 58q95 0 155.5 -47t60.5 -128q0 -73 -48 -121q74 -55 74 -164q0 -88 -60 -144.5t-175 -56.5h-55v140h15q66 0 87 11q27 16 28 50q0 16 -5 28t-15.5 18.5t-20 11t-25.5 6t-25 2t-24 0.5h-15v131h15q43 0 72 18t29 51q0 27 -20 43.5
t-48 16.5q-32 0 -55.5 -25t-23.5 -83v-419h-160z" />
    <glyph glyph-name="agrave" unicode="&#xe0;" 
d="M81 401q61 66 153 66q65 0 106 -36v29h160v-460h-160v28q-43 -36 -106 -36q-92 0 -153 67.5t-61 170.5q0 104 61 171zM198 167q23 -25 60 -25t59.5 25t22.5 63t-22.5 62.5t-59.5 24.5t-60 -24.5t-23 -62.5t23 -63zM169 650h134l59 -123h-130z" />
    <glyph glyph-name="aacute" unicode="&#xe1;" 
d="M81 401q61 66 153 66q65 0 106 -36v29h160v-460h-160v28q-43 -36 -106 -36q-92 0 -153 67.5t-61 170.5q0 104 61 171zM198 167q23 -25 60 -25t59.5 25t22.5 63t-22.5 62.5t-59.5 24.5t-60 -24.5t-23 -62.5t23 -63zM288 650h134l-63 -123h-130z" />
    <glyph glyph-name="acircumflex" unicode="&#xe2;" 
d="M81 401q61 66 153 66q65 0 106 -36v29h160v-460h-160v28q-43 -36 -106 -36q-92 0 -153 67.5t-61 170.5q0 104 61 171zM206 650h178l80 -123h-130l-39 69l-39 -69h-130zM175 230q0 -38 23 -63t60 -25t59.5 25t22.5 63t-22.5 62.5t-59.5 24.5t-60 -24.5t-23 -62.5z" />
    <glyph glyph-name="atilde" unicode="&#xe3;" 
d="M20 230q0 104 61 170.5t153 66.5q65 0 106 -36v29h160v-460h-160v28q-43 -36 -106 -36q-92 0 -153 67.5t-61 170.5zM116 520q0 60 29 98t86 38q48 0 80 -36q21 -23 41 -23q31 0 31 46h90q0 -60 -30 -98t-91 -38q-50 0 -81 36q-21 23 -36 23q-29 0 -29 -46h-90zM175 230
q0 -38 23 -63t60 -25t59.5 25t22.5 63t-22.5 62.5t-59.5 24.5t-60 -24.5t-23 -62.5z" />
    <glyph glyph-name="adieresis" unicode="&#xe4;" 
d="M20 230q0 104 61 170.5t153 66.5q65 0 106 -36v29h160v-460h-160v28q-43 -36 -106 -36q-92 0 -153 67.5t-61 170.5zM198 167q23 -25 60 -25t59.5 25t22.5 63t-22.5 62.5t-59.5 24.5t-60 -24.5t-23 -62.5t23 -63zM150 627q21 18 48 18t48.5 -18.5t21.5 -48.5
q0 -32 -21 -51q-22 -20 -49 -20t-48.5 19.5t-21.5 51.5q0 30 22 49zM323 578q0 30 21.5 48.5t48.5 18.5t48.5 -18.5t21.5 -48.5q0 -32 -21 -51q-22 -20 -49 -20t-48.5 19.5t-21.5 51.5z" />
    <glyph glyph-name="aring" unicode="&#xe5;" 
d="M81 401q61 66 153 66q65 0 106 -36v29h160v-460h-160v28q-43 -36 -106 -36q-92 0 -153 67.5t-61 170.5q0 104 61 171zM217 680q30 28 78 28q49 0 78 -28t29 -73q0 -42 -29 -71q-30 -29 -78 -29t-78 29t-30 71q0 45 30 73zM175 230q0 -38 23 -63t60 -25t59.5 25t22.5 63
t-22.5 62.5t-59.5 24.5t-60 -24.5t-23 -62.5zM295 574q35 0 35 33q0 7 -2 13.5t-10.5 13.5t-22.5 7q-34 0 -34 -34q0 -33 34 -33z" />
    <glyph glyph-name="ae" unicode="&#xe6;" horiz-adv-x="880" 
d="M225 -8q-205 0 -205 133q0 33 14 58.5t37 41.5t57.5 26.5t69 15.5t78.5 7q-4 74 -62 74q-41 0 -57 -34l-124 45q39 108 192 108q74 0 125.5 -32t72.5 -85q27 55 78.5 86t119.5 31q95 0 157 -67t62 -170v-48h-278q18 -55 69 -55q12 0 17 0.5t17.5 3.5t23 12t20.5 24
l110 -76q-65 -99 -192 -99q-69 0 -123 32.5t-82 89.5q-23 -57 -66.5 -89.5t-130.5 -32.5zM560 276h133q-13 66 -62 66q-59 0 -71 -66zM214 102q14 0 22.5 2t18 9t15 23.5t6.5 42.5q-55 -4 -78 -15t-23 -31q0 -12 10.5 -21.5t28.5 -9.5z" />
    <glyph glyph-name="ccedilla" unicode="&#xe7;" horiz-adv-x="474" 
d="M86 402q66 66 171 66q122 0 187 -93l-114 -89q-28 31 -69 31q-37 0 -61 -24.5t-24 -62.5t24 -63t61 -25q43 0 69 29l114 -86q-46 -66 -124 -86l-17 -28q70 -15 70 -72q0 -30 -22 -49.5t-50 -26.5t-61 -7q-46 0 -65 10v69q18 -13 65 -13q37 0 37 17q0 16 -40 16
q-33 0 -44 -6l-1 54l19 32q-87 14 -139 78t-52 157q0 105 66 172z" />
    <glyph glyph-name="egrave" unicode="&#xe8;" horiz-adv-x="513" 
d="M84 402q63 67 167 67q103 0 162.5 -67t59.5 -172v-42h-297q9 -30 30.5 -46.5t49.5 -16.5q54 0 86 36l108 -80q-30 -43 -81 -67t-113 -24q-106 0 -171 68t-65 172t64 172zM125 650h134l59 -123h-130zM178 287h144q-17 57 -71 57q-52 0 -73 -57z" />
    <glyph glyph-name="eacute" unicode="&#xe9;" horiz-adv-x="513" 
d="M84 402q63 67 167 67q103 0 162.5 -67t59.5 -172v-42h-297q9 -30 30.5 -46.5t49.5 -16.5q54 0 86 36l108 -80q-30 -43 -81 -67t-113 -24q-106 0 -171 68t-65 172t64 172zM244 650h134l-63 -123h-130zM178 287h144q-17 57 -71 57q-52 0 -73 -57z" />
    <glyph glyph-name="ecircumflex" unicode="&#xea;" horiz-adv-x="513" 
d="M84 402q63 67 167 67q103 0 162.5 -67t59.5 -172v-42h-297q9 -30 30.5 -46.5t49.5 -16.5q54 0 86 36l108 -80q-30 -43 -81 -67t-113 -24q-106 0 -171 68t-65 172t64 172zM82 527l80 123h178l80 -123h-130l-39 69l-39 -69h-130zM322 287q-17 57 -71 57q-52 0 -73 -57h144z
" />
    <glyph glyph-name="edieresis" unicode="&#xeb;" horiz-adv-x="513" 
d="M20 230q0 104 63.5 171.5t167.5 67.5q103 0 162.5 -67t59.5 -172v-42h-297q9 -30 30.5 -46.5t49.5 -16.5q54 0 86 36l108 -80q-30 -43 -81 -67t-113 -24q-106 0 -171 68t-65 172zM106 627q21 18 48 18t48.5 -18.5t21.5 -48.5q0 -32 -21 -51q-22 -20 -49 -20t-48.5 19.5
t-21.5 51.5q0 30 22 49zM301 627q21 18 48 18t48.5 -18.5t21.5 -48.5q0 -32 -21 -51q-22 -20 -49 -20t-48.5 19.5t-21.5 51.5q0 30 22 49zM178 287h144q-17 57 -71 57q-52 0 -73 -57z" />
    <glyph glyph-name="igrave" unicode="&#xec;" horiz-adv-x="261" 
d="M57 527l-63 123h134l59 -123h-130zM40 0v460h161l-1 -460h-160z" />
    <glyph glyph-name="iacute" unicode="&#xed;" horiz-adv-x="261" 
d="M54 527l59 123h134l-63 -123h-130zM40 0v460h161l-1 -460h-160z" />
    <glyph glyph-name="icircumflex" unicode="&#xee;" horiz-adv-x="261" 
d="M40 460h161l-1 -460h-160v460zM-49 527l80 123h178l80 -123h-130l-39 69l-39 -69h-130z" />
    <glyph glyph-name="idieresis" unicode="&#xef;" horiz-adv-x="261" 
d="M201 460l-1 -460h-160v460h161zM170 627q21 18 48 18t48.5 -18.5t21.5 -48.5q0 -32 -21 -51q-22 -20 -49 -20t-48.5 19.5t-21.5 51.5q0 30 22 49zM-47 578q0 30 21.5 48.5t48.5 18.5t48.5 -18.5t21.5 -48.5q0 -32 -21 -51q-22 -20 -49 -20t-48.5 19.5t-21.5 51.5z" />
    <glyph glyph-name="ntilde" unicode="&#xf1;" horiz-adv-x="553" 
d="M40 460h160v-33q45 40 116 40q32 0 61 -9t56 -28.5t43.5 -58t16.5 -91.5v-280h-160v254q0 26 -8 44t-21 24.5t-21.5 8.5t-17.5 2q-8 0 -16.5 -2t-21 -8.5t-20 -24.5t-7.5 -44v-254h-160v460zM115 618q29 38 86 38q48 0 80 -36q21 -23 41 -23q31 0 31 46h90q0 -60 -30 -98
t-91 -38q-50 0 -81 36q-21 23 -36 23q-29 0 -29 -46h-90q0 60 29 98z" />
    <glyph glyph-name="ograve" unicode="&#xf2;" horiz-adv-x="539" 
d="M20 230q0 105 67.5 172.5t172.5 67.5t172 -67.5t67 -172.5q0 -103 -67 -171q-68 -69 -172 -69t-172 68.5t-68 171.5zM177 230q0 -38 23 -63t60 -25t59.5 25t22.5 63t-22.5 62.5t-59.5 24.5t-60 -24.5t-23 -62.5zM268 650l59 -123h-130l-63 123h134z" />
    <glyph glyph-name="oacute" unicode="&#xf3;" horiz-adv-x="539" 
d="M20 230q0 105 67.5 172.5t172.5 67.5t172 -67.5t67 -172.5q0 -103 -67 -171q-68 -69 -172 -69t-172 68.5t-68 171.5zM177 230q0 -38 23 -63t60 -25t59.5 25t22.5 63t-22.5 62.5t-59.5 24.5t-60 -24.5t-23 -62.5zM253 650h134l-63 -123h-130z" />
    <glyph glyph-name="ocircumflex" unicode="&#xf4;" horiz-adv-x="539" 
d="M20 230q0 105 67.5 172.5t172.5 67.5t172 -67.5t67 -172.5q0 -103 -67 -171q-68 -69 -172 -69t-172 68.5t-68 171.5zM91 527l80 123h178l80 -123h-130l-39 69l-39 -69h-130zM177 230q0 -38 23 -63t60 -25t59.5 25t22.5 63t-22.5 62.5t-59.5 24.5t-60 -24.5t-23 -62.5z
" />
    <glyph glyph-name="otilde" unicode="&#xf5;" horiz-adv-x="539" 
d="M88 403q67 67 172 67t172 -67.5t67 -172.5q0 -103 -67 -171q-68 -69 -172 -69t-172 68.5t-68 171.5q0 105 68 173zM81 520q0 60 29 98t86 38q48 0 80 -36q21 -23 41 -23q31 0 31 46h90q0 -60 -30 -98t-91 -38q-49 0 -81 36q-21 23 -36 23q-29 0 -29 -46h-90zM177 230
q0 -38 23 -63t60 -25t59.5 25t22.5 63t-22.5 62.5t-59.5 24.5t-60 -24.5t-23 -62.5z" />
    <glyph glyph-name="odieresis" unicode="&#xf6;" horiz-adv-x="539" 
d="M20 230q0 105 67.5 172.5t172.5 67.5t172 -67.5t67 -172.5q0 -103 -67 -171q-68 -69 -172 -69t-172 68.5t-68 171.5zM177 230q0 -38 23 -63t60 -25t59.5 25t22.5 63t-22.5 62.5t-59.5 24.5t-60 -24.5t-23 -62.5zM115 627q21 18 48 18t48.5 -18.5t21.5 -48.5
q0 -32 -21 -51q-22 -20 -49 -20t-48.5 19.5t-21.5 51.5q0 30 22 49zM288 578q0 30 21.5 48.5t48.5 18.5t48.5 -18.5t21.5 -48.5q0 -32 -21 -51q-22 -20 -49 -20t-48.5 19.5t-21.5 51.5z" />
    <glyph glyph-name="divide" unicode="&#xf7;" horiz-adv-x="530" 
d="M255 432q-36 0 -59 23t-23 59t23 58.5t59 22.5t59 -22.5t23 -58.5t-23 -59t-59 -23zM40 262v120h430v-120h-430zM255 49q-36 0 -59 23t-23 59t23 58.5t59 22.5t59 -22.5t23 -58.5t-23 -59t-59 -23z" />
    <glyph glyph-name="oslash" unicode="&#xf8;" horiz-adv-x="539" 
d="M260 -10q-75 0 -132 37l-21 -27h-53l40 52q-74 69 -74 178q0 105 67.5 172.5t172.5 67.5q74 0 132 -36l20 26h53l-40 -51q74 -68 74 -179q0 -103 -67.5 -171.5t-171.5 -68.5zM192 177l103 133q-17 7 -35 7q-37 0 -60 -24.5t-23 -62.5q0 -30 15 -53zM260 142q37 0 59.5 25
t22.5 63q0 30 -15 53l-103 -133q16 -8 36 -8z" />
    <glyph glyph-name="ugrave" unicode="&#xf9;" horiz-adv-x="553" 
d="M40 460h160v-255q0 -26 8 -44t21 -24.5t21.5 -8.5t17.5 -2q8 0 16.5 2t21 8.5t20 24.5t7.5 44v255h160v-460h-160v32q-45 -40 -116 -40q-32 0 -61 9t-56 28.5t-43.5 58t-16.5 91.5v281zM142 650h134l59 -123h-130z" />
    <glyph glyph-name="uacute" unicode="&#xfa;" horiz-adv-x="553" 
d="M40 179v281h160v-255q0 -26 8 -44t21 -24.5t21.5 -8.5t17.5 -2q8 0 16.5 2t21 8.5t20 24.5t7.5 44v255h160v-460h-160v32q-45 -40 -116 -40q-32 0 -61 9t-56 28.5t-43.5 58t-16.5 91.5zM202 527l59 123h134l-63 -123h-130z" />
    <glyph glyph-name="ucircumflex" unicode="&#xfb;" horiz-adv-x="553" 
d="M40 179v281h160v-255q0 -26 8 -44t21 -24.5t21.5 -8.5t17.5 -2q8 0 16.5 2t21 8.5t20 24.5t7.5 44v255h160v-460h-160v32q-45 -40 -116 -40q-32 0 -61 9t-56 28.5t-43.5 58t-16.5 91.5zM99 527l80 123h178l80 -123h-130l-39 69l-39 -69h-130z" />
    <glyph glyph-name="udieresis" unicode="&#xfc;" horiz-adv-x="553" 
d="M200 460v-255q0 -26 8 -44t21 -24.5t21.5 -8.5t17.5 -2q8 0 16.5 2t21 8.5t20 24.5t7.5 44v255h160v-460h-160v32q-45 -40 -116 -40q-32 0 -61 9t-56 28.5t-43.5 58t-16.5 91.5v281h160zM296 578q0 30 21.5 48.5t48.5 18.5t48.5 -18.5t21.5 -48.5q0 -32 -21 -51
q-22 -20 -49 -20t-48.5 19.5t-21.5 51.5zM123 627q21 18 48 18t48.5 -18.5t21.5 -48.5q0 -32 -21 -51q-22 -20 -49 -20t-48.5 19.5t-21.5 51.5q0 30 22 49z" />
    <glyph glyph-name="yacute" unicode="&#xfd;" horiz-adv-x="549" 
d="M175 460l94 -239l95 239h165l-256 -644h-155l73 184l-181 460h165zM262 650h134l-63 -123h-130z" />
    <glyph glyph-name="ydieresis" unicode="&#xff;" horiz-adv-x="549" 
d="M10 460h165l94 -239l95 239h165l-256 -644h-155l73 184zM102 578q0 30 21.5 48.5t48.5 18.5t48.5 -18.5t21.5 -48.5q0 -32 -21 -51q-22 -20 -49 -20t-48.5 19.5t-21.5 51.5zM297 578q0 30 21.5 48.5t48.5 18.5t48.5 -18.5t21.5 -48.5q0 -32 -21 -51q-22 -20 -49 -20
t-48.5 19.5t-21.5 51.5z" />
    <glyph glyph-name="Amacron" unicode="&#x100;" horiz-adv-x="677" 
d="M271 650h125l261 -650h-175l-28 72h-241l-28 -72h-175zM229 806h212v-100h-212v100zM396 222l-63 164l-63 -164h126z" />
    <glyph glyph-name="amacron" unicode="&#x101;" 
d="M81 401q61 66 153 66q65 0 106 -36v29h160v-460h-160v28q-43 -36 -106 -36q-92 0 -153 67.5t-61 170.5q0 104 61 171zM198 167q23 -25 60 -25t59.5 25t22.5 63t-22.5 62.5t-59.5 24.5t-60 -24.5t-23 -62.5t23 -63zM189 623h212v-100h-212v100z" />
    <glyph glyph-name="Abreve" unicode="&#x102;" horiz-adv-x="677" 
d="M10 0l261 650h125l261 -650h-175l-28 72h-241l-28 -72h-175zM196 828h90v-3q0 -18 13.5 -31t35.5 -13t34.5 13t12.5 31v3h90v-3q0 -57 -37.5 -90.5t-99.5 -33.5q-63 0 -101 33.5t-38 90.5v3zM396 222l-63 164l-63 -164h126z" />
    <glyph glyph-name="abreve" unicode="&#x103;" 
d="M81 401q61 66 153 66q65 0 106 -36v29h160v-460h-160v28q-43 -36 -106 -36q-92 0 -153 67.5t-61 170.5q0 104 61 171zM156 642v3h90v-3q0 -18 13.5 -31t35.5 -13t34.5 13t12.5 31v3h90v-3q0 -57 -37.5 -90.5t-99.5 -33.5q-63 0 -101 33.5t-38 90.5zM198 167
q23 -25 60 -25t59.5 25t22.5 63t-22.5 62.5t-59.5 24.5t-60 -24.5t-23 -62.5t23 -63z" />
    <glyph glyph-name="Aogonek" unicode="&#x104;" horiz-adv-x="677" 
d="M583 -58q0 -9 6.5 -15.5t16 -7.5t12.5 -1q16 0 41 10v-90q-28 -7 -54 -7q-34 0 -75 15.5t-41 70.5q0 47 44 83h-51l-28 72h-241l-28 -72h-175l261 650h125l261 -650h-34q-40 -29 -40 -58zM270 222h126l-63 164z" />
    <glyph glyph-name="aogonek" unicode="&#x105;" 
d="M81 401q61 66 153 66q65 0 106 -36v29h160v-460h-14q-44 -32 -44 -61q0 -9 6.5 -15.5t16 -7.5t12.5 -1q16 0 41 10v-90q-28 -7 -54 -7q-34 0 -75 15.5t-41 70.5q0 51 48 86h-56v28q-43 -36 -106 -36q-92 0 -153 67.5t-61 170.5q0 104 61 171zM175 230q0 -38 23 -63
t60 -25t59.5 25t22.5 63t-22.5 62.5t-59.5 24.5t-60 -24.5t-23 -62.5z" />
    <glyph glyph-name="Cacute" unicode="&#x106;" horiz-adv-x="657" 
d="M123 564q92 94 236 94q172 0 263 -131l-132 -99q-20 27 -55 46t-76 19q-73 0 -118.5 -47t-45.5 -121t45.5 -121t118.5 -47q40 0 74.5 21t56.5 48l132 -103q-91 -131 -263 -131q-144 0 -236.5 94t-92.5 239t93 239zM338 835h134l-63 -123h-130z" />
    <glyph glyph-name="cacute" unicode="&#x107;" horiz-adv-x="474" 
d="M86 402q66 66 171 66q122 0 187 -93l-114 -89q-28 31 -69 31q-37 0 -61 -24.5t-24 -62.5t24 -63t61 -25q43 0 69 29l114 -86q-65 -94 -187 -94q-105 0 -171 67t-66 172t66 172zM191 527l59 123h134l-63 -123h-130z" />
    <glyph glyph-name="Cdotaccent" unicode="&#x10a;" horiz-adv-x="657" 
d="M30 325q0 145 92.5 239t236.5 94q172 0 263 -131l-132 -99q-20 27 -55 46t-76 19q-73 0 -118.5 -47t-45.5 -121t45.5 -121t118.5 -47q40 0 74.5 21t56.5 48l132 -103q-91 -131 -263 -131q-144 0 -236.5 94t-92.5 239zM275 763q0 30 21.5 48.5t48.5 18.5t48.5 -18.5
t21.5 -48.5q0 -32 -21 -51q-22 -20 -49 -20t-48.5 19.5t-21.5 51.5z" />
    <glyph glyph-name="cdotaccent" unicode="&#x10b;" horiz-adv-x="474" 
d="M86 402q66 66 171 66q122 0 187 -93l-114 -89q-28 31 -69 31q-37 0 -61 -24.5t-24 -62.5t24 -63t61 -25q43 0 69 29l114 -86q-65 -94 -187 -94q-105 0 -171 67t-66 172t66 172zM209 627q21 18 48 18t48.5 -18.5t21.5 -48.5q0 -32 -21 -51q-22 -20 -49 -20t-48.5 19.5
t-21.5 51.5q0 30 22 49z" />
    <glyph glyph-name="Ccaron" unicode="&#x10c;" horiz-adv-x="657" 
d="M123 564q92 94 236 94q172 0 263 -131l-132 -99q-20 27 -55 46t-76 19q-73 0 -118.5 -47t-45.5 -121t45.5 -121t118.5 -47q40 0 74.5 21t56.5 48l132 -103q-91 -131 -263 -131q-144 0 -236.5 94t-92.5 239t93 239zM306 835l39 -64l39 64h130l-80 -123h-178l-80 123h130z
" />
    <glyph glyph-name="ccaron" unicode="&#x10d;" horiz-adv-x="474" 
d="M86 402q66 66 171 66q122 0 187 -93l-114 -89q-28 31 -69 31q-37 0 -61 -24.5t-24 -62.5t24 -63t61 -25q43 0 69 29l114 -86q-65 -94 -187 -94q-105 0 -171 67t-66 172t66 172zM88 650h130l39 -64l39 64h130l-80 -123h-178z" />
    <glyph glyph-name="Dcaron" unicode="&#x10e;" horiz-adv-x="658" 
d="M294 650q142 0 230.5 -90t88.5 -235t-88.5 -235t-230.5 -90h-254v650h254zM205 160h89q12 0 26.5 2t39 11.5t43 25.5t32 49t13.5 77t-14 76.5t-32.5 49t-42.5 26t-38.5 11.5t-26.5 2h-89v-330zM95 834h130l39 -64l39 64h130l-80 -123h-178z" />
    <glyph glyph-name="dcaron" unicode="&#x10f;" 
d="M81 401q61 66 153 66q65 0 106 -36v219h160v-650h-160v28q-43 -36 -106 -36q-92 0 -153 67.5t-61 170.5q0 104 61 171zM250 833h130l39 -64l39 64h130l-80 -123h-178zM175 230q0 -38 23 -63t60 -25t59.5 25t22.5 63t-22.5 62.5t-59.5 24.5t-60 -24.5t-23 -62.5z" />
    <glyph glyph-name="Dcroat" unicode="&#x110;" horiz-adv-x="664" 
d="M40 0v246h-39v150h39v254h257q144 0 233 -90t89 -235t-89 -235t-233 -90h-257zM205 163h94q11 0 25.5 2t39 12t43.5 26t33 48t14 74t-14.5 74t-33.5 48t-43 25.5t-39 12t-26 2.5h-93v-91h77v-150h-77v-83z" />
    <glyph glyph-name="Emacron" unicode="&#x112;" horiz-adv-x="548" 
d="M40 0v650h453v-150h-288v-100h267v-150h-267v-100h288v-150h-453zM165 806h212v-100h-212v100z" />
    <glyph glyph-name="emacron" unicode="&#x113;" horiz-adv-x="513" 
d="M84 402q63 67 167 67q103 0 162.5 -67t59.5 -172v-42h-297q9 -30 30.5 -46.5t49.5 -16.5q54 0 86 36l108 -80q-30 -43 -81 -67t-113 -24q-106 0 -171 68t-65 172t64 172zM145 623h212v-100h-212v100zM178 287h144q-17 57 -71 57q-52 0 -73 -57z" />
    <glyph glyph-name="Edotaccent" unicode="&#x116;" horiz-adv-x="548" 
d="M493 650v-150h-288v-100h267v-150h-267v-100h288v-150h-453v650h453zM223 810q21 18 48 18t48.5 -18.5t21.5 -48.5q0 -32 -21 -51q-22 -20 -49 -20t-48.5 19.5t-21.5 51.5q0 30 22 49z" />
    <glyph glyph-name="edotaccent" unicode="&#x117;" horiz-adv-x="513" 
d="M84 402q63 67 167 67q103 0 162.5 -67t59.5 -172v-42h-297q9 -30 30.5 -46.5t49.5 -16.5q54 0 86 36l108 -80q-30 -43 -81 -67t-113 -24q-106 0 -171 68t-65 172t64 172zM203 627q21 18 48 18t48.5 -18.5t21.5 -48.5q0 -32 -21 -51q-22 -20 -49 -20t-48.5 19.5
t-21.5 51.5q0 30 22 49zM322 287q-17 57 -71 57q-52 0 -73 -57h144z" />
    <glyph glyph-name="Eogonek" unicode="&#x118;" horiz-adv-x="548" 
d="M493 650v-150h-288v-100h267v-150h-267v-100h288v-150h-28q-41 -31 -41 -59q0 -9 6.5 -15.5t16 -7.5t12.5 -1q16 0 41 10v-90q-28 -7 -54 -7q-34 0 -75 15.5t-41 70.5q0 48 45 84h-335v650h453z" />
    <glyph glyph-name="eogonek" unicode="&#x119;" horiz-adv-x="513" 
d="M84 402q63 67 167 67q103 0 162.5 -67t59.5 -172v-42h-297q9 -30 30.5 -46.5t49.5 -16.5q54 0 86 36l108 -80q-52 -73 -150 -88q-47 -33 -47 -63q0 -9 6.5 -15.5t16 -7.5t12.5 -1q16 0 41 10v-90q-28 -7 -54 -7q-34 0 -75 15.5t-41 70.5q0 53 52 89q-87 14 -139 79
t-52 157q0 104 64 172zM322 287q-17 57 -71 57q-52 0 -73 -57h144z" />
    <glyph glyph-name="Ecaron" unicode="&#x11a;" horiz-adv-x="548" 
d="M40 0v650h453v-150h-288v-100h267v-150h-267v-100h288v-150h-453zM102 833h130l39 -64l39 64h130l-80 -123h-178z" />
    <glyph glyph-name="ecaron" unicode="&#x11b;" horiz-adv-x="513" 
d="M84 402q63 67 167 67q103 0 162.5 -67t59.5 -172v-42h-297q9 -30 30.5 -46.5t49.5 -16.5q54 0 86 36l108 -80q-30 -43 -81 -67t-113 -24q-106 0 -171 68t-65 172t64 172zM212 650l39 -64l39 64h130l-80 -123h-178l-80 123h130zM322 287q-17 57 -71 57q-52 0 -73 -57h144z
" />
    <glyph glyph-name="Gbreve" unicode="&#x11e;" horiz-adv-x="721" 
d="M123 564q92 94 236 94q85 0 152.5 -34.5t110.5 -95.5l-133 -99q-47 64 -130 64q-73 0 -118.5 -47t-45.5 -121t45.5 -121t118.5 -47q39 0 73.5 19.5t47.5 57.5h-131v150h322v-74q-5 -141 -89 -229.5t-223 -88.5q-144 0 -236.5 94t-92.5 239t93 239zM309 828v-3
q0 -18 13.5 -31t35.5 -13t34.5 13t12.5 31v3h90v-3q0 -57 -37.5 -90.5t-99.5 -33.5q-63 0 -101 33.5t-38 90.5v3h90z" />
    <glyph glyph-name="gbreve" unicode="&#x11f;" 
d="M20 230q0 103 60.5 170t152.5 67q64 0 107 -37v30h160v-429q0 -103 -64.5 -167t-184.5 -64q-62 0 -113.5 23t-84.5 62l103 87q38 -38 95 -38q9 0 20.5 2.5t28.5 11t28.5 29.5t11.5 52q-43 -37 -107 -37q-92 0 -152.5 67.5t-60.5 170.5zM221 645v-3q0 -18 13.5 -31
t35.5 -13t34.5 13t12.5 31v3h90v-3q0 -57 -37.5 -90.5t-99.5 -33.5q-63 0 -101 33.5t-38 90.5v3h90zM198 167q22 -25 59 -25t60 25t23 63t-23 62.5t-60 24.5t-59.5 -24.5t-22.5 -62.5t23 -63z" />
    <glyph glyph-name="Gdotaccent" unicode="&#x120;" horiz-adv-x="721" 
d="M30 325q0 145 92.5 239t236.5 94q85 0 152.5 -34.5t110.5 -95.5l-133 -99q-47 64 -130 64q-73 0 -118.5 -47t-45.5 -121t45.5 -121t118.5 -47q39 0 73.5 19.5t47.5 57.5h-131v150h322v-74q-5 -141 -89 -229.5t-223 -88.5q-144 0 -236.5 94t-92.5 239zM310 810
q21 18 48 18t48.5 -18.5t21.5 -48.5q0 -32 -21 -51q-22 -20 -49 -20t-48.5 19.5t-21.5 51.5q0 30 22 49z" />
    <glyph glyph-name="gdotaccent" unicode="&#x121;" 
d="M20 230q0 103 60.5 170t152.5 67q64 0 107 -37v30h160v-429q0 -103 -64.5 -167t-184.5 -64q-62 0 -113.5 23t-84.5 62l103 87q38 -38 95 -38q9 0 20.5 2.5t28.5 11t28.5 29.5t11.5 52q-43 -37 -107 -37q-92 0 -152.5 67.5t-60.5 170.5zM198 167q22 -25 59 -25t60 25
t23 63t-23 62.5t-60 24.5t-59.5 -24.5t-22.5 -62.5t23 -63zM200 578q0 30 21.5 48.5t48.5 18.5t48.5 -18.5t21.5 -48.5q0 -32 -21 -51q-22 -20 -49 -20t-48.5 19.5t-21.5 51.5z" />
    <glyph glyph-name="uni0122" unicode="&#x122;" horiz-adv-x="721" 
d="M123 564q92 94 236 94q85 0 152.5 -34.5t110.5 -95.5l-133 -99q-47 64 -130 64q-73 0 -118.5 -47t-45.5 -121t45.5 -121t118.5 -47q39 0 73.5 19.5t47.5 57.5h-131v150h322v-74q-5 -141 -89 -229.5t-223 -88.5q-144 0 -236.5 94t-92.5 239t93 239zM301 -52h130l-66 -120
h-126z" />
    <glyph glyph-name="uni0123" unicode="&#x123;" 
d="M81 400q60 67 152 67q64 0 107 -37v30h160v-429q0 -103 -64.5 -167t-184.5 -64q-62 0 -113.5 23t-84.5 62l103 87q38 -38 95 -38q9 0 20.5 2.5t28.5 11t28.5 29.5t11.5 52q-43 -37 -107 -37q-92 0 -152.5 67.5t-60.5 170.5t61 170zM198 167q22 -25 59 -25t60 25t23 63
t-23 62.5t-60 24.5t-59.5 -24.5t-22.5 -62.5t23 -63zM198 576q0 54 72 103h73q-10 -7 -26.5 -23t-20.5 -22q42 -13 42 -58q0 -27 -17 -46q-18 -20 -51 -20t-52.5 20t-19.5 46z" />
    <glyph glyph-name="Itilde" unicode="&#x128;" horiz-adv-x="265" 
d="M40 650h165v-650h-165v650zM-58 703q0 60 29 98t86 38q48 0 80 -36q21 -23 41 -23q31 0 31 46h90q0 -60 -30 -98t-91 -38q-50 0 -81 36q-21 23 -36 23q-29 0 -29 -46h-90z" />
    <glyph glyph-name="itilde" unicode="&#x129;" horiz-adv-x="261" 
d="M40 460h161l-1 -460h-160v460zM-59 520q0 60 29 98t86 38q48 0 80 -36q21 -23 41 -23q31 0 31 46h90q0 -60 -30 -98t-91 -38q-49 0 -81 36q-21 23 -36 23q-29 0 -29 -46h-90z" />
    <glyph glyph-name="Imacron" unicode="&#x12a;" horiz-adv-x="265" 
d="M15 706v100h212v-100h-212zM40 0v650h165v-650h-165z" />
    <glyph glyph-name="imacron" unicode="&#x12b;" horiz-adv-x="261" 
d="M14 523v100h212v-100h-212zM40 0v460h161l-1 -460h-160z" />
    <glyph glyph-name="Iogonek" unicode="&#x12e;" horiz-adv-x="265" 
d="M40 650h165v-650h-19q-45 -34 -45 -62q0 -9 6.5 -15.5t16 -7.5t12.5 -1q16 0 41 10v-90q-28 -7 -54 -7q-34 0 -75 15.5t-41 70.5q0 51 49 87h-56v650z" />
    <glyph glyph-name="iogonek" unicode="&#x12f;" horiz-adv-x="261" 
d="M201 460l-1 -460h-13q-47 -31 -47 -63q0 -9 6.5 -15.5t16 -7.5t12.5 -1q16 0 41 10v-90q-28 -7 -54 -7q-34 0 -75 15.5t-41 70.5q0 51 51 88h-57v460h161zM50 578q0 30 21.5 48.5t48.5 18.5t48.5 -18.5t21.5 -48.5q0 -32 -21 -51q-22 -20 -49 -20t-48.5 19.5t-21.5 51.5z
" />
    <glyph glyph-name="Idotaccent" unicode="&#x130;" horiz-adv-x="265" 
d="M205 650v-650h-165v650h165zM73 810q21 18 48 18t48.5 -18.5t21.5 -48.5q0 -32 -21 -51q-22 -20 -49 -20t-48.5 19.5t-21.5 51.5q0 30 22 49z" />
    <glyph glyph-name="dotlessi" unicode="&#x131;" horiz-adv-x="261" 
d="M40 0v460h161l-1 -460h-160z" />
    <glyph glyph-name="uni0136" unicode="&#x136;" horiz-adv-x="590" 
d="M205 650v-244l166 244h186l-215 -325l228 -325h-190l-175 247v-247h-165v650h165zM230 -48h130l-66 -120h-126z" />
    <glyph glyph-name="uni0137" unicode="&#x137;" horiz-adv-x="538" 
d="M40 650h160v-346l112 156h185l-157 -218l178 -242h-185l-133 181v-181h-160v650zM200 -48h130l-66 -120h-126z" />
    <glyph glyph-name="Lacute" unicode="&#x139;" horiz-adv-x="531" 
d="M55 710l59 123h134l-63 -123h-130zM40 0v650h165v-500h286v-150h-451z" />
    <glyph glyph-name="lacute" unicode="&#x13a;" horiz-adv-x="261" 
d="M55 710l59 123h134l-63 -123h-130zM40 0v650h161l-1 -650h-160z" />
    <glyph glyph-name="uni013B" unicode="&#x13b;" horiz-adv-x="531" 
d="M40 0v650h165v-500h286v-150h-451zM144 -168l62 120h130l-66 -120h-126z" />
    <glyph glyph-name="uni013C" unicode="&#x13c;" horiz-adv-x="261" 
d="M40 0v650h161l-1 -650h-160zM0 -168l62 120h130l-66 -120h-126z" />
    <glyph glyph-name="Lcaron" unicode="&#x13d;" horiz-adv-x="531" 
d="M205 650v-500h286v-150h-451v650h165zM-48 833h130l39 -64l39 64h130l-80 -123h-178z" />
    <glyph glyph-name="lcaron" unicode="&#x13e;" horiz-adv-x="261" 
d="M40 650h161l-1 -650h-160v650zM-48 833h130l39 -64l39 64h130l-80 -123h-178z" />
    <glyph glyph-name="Lslash" unicode="&#x141;" horiz-adv-x="529" 
d="M40 0v260l-39 -14v155l39 14v235h165v-176l86 31v-155l-86 -31v-169h284v-150h-449z" />
    <glyph glyph-name="lslash" unicode="&#x142;" horiz-adv-x="260" 
d="M40 0v240l-33 -11v127l33 11v283h160v-228l52 18v-127l-52 -18v-295h-160z" />
    <glyph glyph-name="Nacute" unicode="&#x143;" horiz-adv-x="647" 
d="M200 650l222 -355v355h165v-650h-160l-222 354v-354h-165v650h160zM248 710l59 123h134l-63 -123h-130z" />
    <glyph glyph-name="nacute" unicode="&#x144;" horiz-adv-x="553" 
d="M40 460h160v-33q45 40 116 40q32 0 61 -9t56 -28.5t43.5 -58t16.5 -91.5v-280h-160v254q0 26 -8 44t-21 24.5t-21.5 8.5t-17.5 2q-8 0 -16.5 -2t-21 -8.5t-20 -24.5t-7.5 -44v-254h-160v460zM258 650h134l-63 -123h-130z" />
    <glyph glyph-name="uni0145" unicode="&#x145;" horiz-adv-x="647" 
d="M200 650l222 -355v355h165v-650h-160l-222 354v-354h-165v650h160zM196 -168l62 120h130l-66 -120h-126z" />
    <glyph glyph-name="uni0146" unicode="&#x146;" horiz-adv-x="553" 
d="M40 460h160v-33q45 40 116 40q32 0 61 -9t56 -28.5t43.5 -58t16.5 -91.5v-280h-160v254q0 26 -8 44t-21 24.5t-21.5 8.5t-17.5 2q-8 0 -16.5 -2t-21 -8.5t-20 -24.5t-7.5 -44v-254h-160v460zM145 -168l62 120h130l-66 -120h-126z" />
    <glyph glyph-name="Ncaron" unicode="&#x147;" horiz-adv-x="647" 
d="M200 650l222 -355v355h165v-650h-160l-222 354v-354h-165v650h160zM145 833h130l39 -64l39 64h130l-80 -123h-178z" />
    <glyph glyph-name="ncaron" unicode="&#x148;" horiz-adv-x="553" 
d="M40 0v460h160v-33q45 40 116 40q32 0 61 -9t56 -28.5t43.5 -58t16.5 -91.5v-280h-160v254q0 26 -8 44t-21 24.5t-21.5 8.5t-17.5 2q-8 0 -16.5 -2t-21 -8.5t-20 -24.5t-7.5 -44v-254h-160zM96 650h130l39 -64l39 64h130l-80 -123h-178z" />
    <glyph glyph-name="Omacron" unicode="&#x14c;" horiz-adv-x="731" 
d="M30 325q0 145 92.5 239t236.5 94t235.5 -94t91.5 -239t-91 -239q-92 -94 -236 -94t-236.5 94t-92.5 239zM195 325q0 -74 46 -121q45 -47 118 -47t117.5 47t44.5 121t-44.5 121t-117.5 47t-118.5 -47t-45.5 -121zM253 806h212v-100h-212v100z" />
    <glyph glyph-name="omacron" unicode="&#x14d;" horiz-adv-x="539" 
d="M20 230q0 105 67.5 172.5t172.5 67.5t172 -67.5t67 -172.5q0 -103 -67 -171q-68 -69 -172 -69t-172 68.5t-68 171.5zM177 230q0 -38 23 -63t60 -25t59.5 25t22.5 63t-22.5 62.5t-59.5 24.5t-60 -24.5t-23 -62.5zM366 623v-100h-212v100h212z" />
    <glyph glyph-name="Ohungarumlaut" unicode="&#x150;" horiz-adv-x="731" 
d="M30 325q0 145 92.5 239t236.5 94t235.5 -94t91.5 -239t-91 -239q-92 -94 -236 -94t-236.5 94t-92.5 239zM241 204q45 -47 118 -47t117.5 47t44.5 121t-44.5 121t-117.5 47t-118.5 -47t-45.5 -121t46 -121zM453 833h134l-85 -123h-110zM187 710l61 123h134l-85 -123h-110z
" />
    <glyph glyph-name="ohungarumlaut" unicode="&#x151;" horiz-adv-x="539" 
d="M88 403q67 67 172 67t172 -67.5t67 -172.5q0 -103 -67 -171q-68 -69 -172 -69t-172 68.5t-68 171.5q0 105 68 173zM200 167q23 -25 60 -25t59.5 25t22.5 63t-22.5 62.5t-59.5 24.5t-60 -24.5t-23 -62.5t23 -63zM293 527l61 123h134l-85 -123h-110zM88 527l61 123h134
l-85 -123h-110z" />
    <glyph glyph-name="OE" unicode="&#x152;" horiz-adv-x="973" 
d="M364 -8q-145 0 -239.5 94t-94.5 239t93.5 239t240.5 94q87 0 157 -36v28h397v-150h-232v-103h211v-150h-211v-97h232v-150h-397v29q-69 -37 -157 -37zM364 157q72 0 114.5 46.5t42.5 121.5t-42.5 121.5t-114.5 46.5q-79 0 -124 -46.5t-45 -121.5t45 -121.5t124 -46.5z
" />
    <glyph glyph-name="oe" unicode="&#x153;" horiz-adv-x="820" 
d="M563 -10q-96 0 -159 57q-61 -55 -153 -55q-102 0 -166.5 67.5t-64.5 170.5t64.5 170t166.5 67q89 0 152 -53q63 55 155 55q103 0 162.5 -67t59.5 -172v-42h-297q9 -30 30.5 -46.5t49.5 -16.5q54 0 86 36l110 -70q-31 -47 -82.5 -74t-113.5 -27zM485 287h144
q-17 57 -71 57q-52 0 -73 -57zM251 149q73 0 73 81q0 80 -73 80q-74 0 -74 -80q0 -81 74 -81z" />
    <glyph glyph-name="Racute" unicode="&#x154;" horiz-adv-x="620" 
d="M40 650h319q80 0 143 -58.5t63 -165.5q0 -75 -32 -126.5t-84 -77.5l131 -222h-190l-118 201h-67v-201h-165v650zM205 361h126q28 0 48.5 16.5t20.5 48.5t-20.5 48t-48.5 16h-126v-129zM259 833h134l-63 -123h-130z" />
    <glyph glyph-name="racute" unicode="&#x155;" horiz-adv-x="392" 
d="M40 460h160v-83q57 88 162 90v-150h-6q-9 0 -17 1q-8 -1 -18 -1.5t-35.5 -7t-42 -19t-30 -39.5t-13.5 -65v-186h-160v460zM206 650h134l-63 -123h-130z" />
    <glyph glyph-name="uni0156" unicode="&#x156;" horiz-adv-x="620" 
d="M40 650h319q80 0 143 -58.5t63 -165.5q0 -75 -32 -126.5t-84 -77.5l131 -222h-190l-118 201h-67v-201h-165v650zM205 361h126q28 0 48.5 16.5t20.5 48.5t-20.5 48t-48.5 16h-126v-129zM228 -48h130l-66 -120h-126z" />
    <glyph glyph-name="uni0157" unicode="&#x157;" horiz-adv-x="392" 
d="M200 460v-83q57 88 162 90v-150h-6q-9 0 -17 1q-8 -1 -18 -1.5t-35.5 -7t-42 -19t-30 -39.5t-13.5 -65v-186h-160v460h160zM62 -48h130l-66 -120h-126z" />
    <glyph glyph-name="Rcaron" unicode="&#x158;" horiz-adv-x="620" 
d="M40 650h319q80 0 143 -58.5t63 -165.5q0 -75 -32 -126.5t-84 -77.5l131 -222h-190l-118 201h-67v-201h-165v650zM227 833l39 -64l39 64h130l-80 -123h-178l-80 123h130zM205 361h126q28 0 48.5 16.5t20.5 48.5t-20.5 48t-48.5 16h-126v-129z" />
    <glyph glyph-name="rcaron" unicode="&#x159;" horiz-adv-x="392" 
d="M200 460v-83q57 88 162 90v-150h-6q-9 0 -17 1q-8 -1 -18 -1.5t-35.5 -7t-42 -19t-30 -39.5t-13.5 -65v-186h-160v460h160zM44 650h130l39 -64l39 64h130l-80 -123h-178z" />
    <glyph glyph-name="Sacute" unicode="&#x15a;" horiz-adv-x="615" 
d="M152 247q18 -26 69.5 -60t106.5 -34q38 0 50 10.5t12 27.5q0 9 -9 17.5t-24.5 15.5t-31 12t-35 11t-29.5 10q-3 1 -30 10.5t-45 16.5t-46.5 24t-46.5 36t-31.5 49t-13.5 65q0 54 22.5 95t60.5 64t83 34t95 11q91 0 166 -45.5t96 -100.5l-129 -87q-17 22 -60.5 45
t-93.5 23t-50 -30q0 -10 8.5 -19.5t23.5 -16.5t30 -12t34 -11t29 -10q2 -1 24.5 -9t37 -14.5t39.5 -18.5t41.5 -26.5t34 -33.5t26.5 -44t9 -53q0 -102 -72.5 -156.5t-193.5 -54.5q-108 0 -184.5 49.5t-104.5 113.5zM303 833h134l-63 -123h-130z" />
    <glyph glyph-name="sacute" unicode="&#x15b;" horiz-adv-x="451" 
d="M118 173q7 -16 42 -39t67 -23q39 0 39 20q0 6 -4.5 11.5t-13.5 9.5t-17 7t-20.5 7t-19.5 7l-18 7q-18 6 -27.5 10.5t-29 14t-31.5 20t-25.5 25.5t-20 33.5t-6.5 40.5q0 74 55.5 110.5t136.5 36.5q73 0 125 -30t74 -71l-102 -68q-13 15 -44.5 31.5t-58.5 16.5
q-31 0 -31 -18q0 -7 4.5 -13t13.5 -10.5t17 -8t22 -7.5l19 -7q1 -1 13 -5t19.5 -7t22 -9.5t24 -13t23 -15t22 -19t17 -22.5t12.5 -27t4 -31q0 -74 -52 -113t-144 -39q-83 0 -139 34t-76 80zM159 527l59 123h134l-63 -123h-130z" />
    <glyph glyph-name="Scedilla" unicode="&#x15e;" horiz-adv-x="615" 
d="M152 247q18 -26 69.5 -60t106.5 -34q38 0 50 10.5t12 27.5q0 9 -9 17.5t-24.5 15.5t-31 12t-35 11t-29.5 10q-3 1 -30 10.5t-45 16.5t-46.5 24t-46.5 36t-31.5 49t-13.5 65q0 54 22.5 95t60.5 64t83 34t95 11q91 0 166 -45.5t96 -100.5l-129 -87q-17 22 -60.5 45
t-93.5 23t-50 -30q0 -10 8.5 -19.5t23.5 -16.5t30 -12t34 -11t29 -10q2 -1 24.5 -9t37 -14.5t39.5 -18.5t41.5 -26.5t34 -33.5t26.5 -44t9 -53q0 -86 -53 -139t-146 -67l-16 -27q70 -15 70 -72q0 -30 -22 -49.5t-50 -26.5t-61 -7q-46 0 -65 10v69q18 -13 65 -13q37 0 37 17
q0 16 -40 16q-34 0 -44 -6l-1 54l19 32q-92 10 -157.5 57t-90.5 104z" />
    <glyph glyph-name="scedilla" unicode="&#x15f;" horiz-adv-x="451" 
d="M118 173q7 -16 42 -39t67 -23q39 0 39 20q0 6 -4.5 11.5t-13.5 9.5t-17 7t-20.5 7t-19.5 7l-18 7q-18 6 -27.5 10.5t-29 14t-31.5 20t-25.5 25.5t-20 33.5t-6.5 40.5q0 74 55.5 110.5t136.5 36.5q73 0 125 -30t74 -71l-102 -68q-13 15 -44.5 31.5t-58.5 16.5
q-31 0 -31 -18q0 -7 4.5 -13t13.5 -10.5t17 -8t22 -7.5l19 -7q1 -1 13 -5t19.5 -7t22 -9.5t24 -13t23 -15t22 -19t17 -22.5t12.5 -27t4 -31q0 -60 -35.5 -98t-99.5 -49l-13 -21q70 -15 70 -72q0 -30 -22 -49.5t-50 -26.5t-61 -7q-46 0 -65 10v69q18 -13 65 -13q37 0 37 17
q0 16 -40 16q-33 0 -44 -6l-1 54l17 27q-65 10 -108.5 41.5t-60.5 69.5z" />
    <glyph glyph-name="Scaron" unicode="&#x160;" horiz-adv-x="615" 
d="M152 247q18 -26 69.5 -60t106.5 -34q38 0 50 10.5t12 27.5q0 9 -9 17.5t-24.5 15.5t-31 12t-35 11t-29.5 10q-3 1 -30 10.5t-45 16.5t-46.5 24t-46.5 36t-31.5 49t-13.5 65q0 54 22.5 95t60.5 64t83 34t95 11q91 0 166 -45.5t96 -100.5l-129 -87q-17 22 -60.5 45
t-93.5 23t-50 -30q0 -10 8.5 -19.5t23.5 -16.5t30 -12t34 -11t29 -10q2 -1 24.5 -9t37 -14.5t39.5 -18.5t41.5 -26.5t34 -33.5t26.5 -44t9 -53q0 -102 -72.5 -156.5t-193.5 -54.5q-108 0 -184.5 49.5t-104.5 113.5zM141 833h130l39 -64l39 64h130l-80 -123h-178z" />
    <glyph glyph-name="scaron" unicode="&#x161;" horiz-adv-x="451" 
d="M118 173q7 -16 42 -39t67 -23q39 0 39 20q0 6 -4.5 11.5t-13.5 9.5t-17 7t-20.5 7t-19.5 7l-18 7q-18 6 -27.5 10.5t-29 14t-31.5 20t-25.5 25.5t-20 33.5t-6.5 40.5q0 74 55.5 110.5t136.5 36.5q73 0 125 -30t74 -71l-102 -68q-13 15 -44.5 31.5t-58.5 16.5
q-31 0 -31 -18q0 -7 4.5 -13t13.5 -10.5t17 -8t22 -7.5l19 -7q1 -1 13 -5t19.5 -7t22 -9.5t24 -13t23 -15t22 -19t17 -22.5t12.5 -27t4 -31q0 -74 -52 -113t-144 -39q-83 0 -139 34t-76 80zM56 650h130l39 -64l39 64h130l-80 -123h-178z" />
    <glyph glyph-name="uni0162" unicode="&#x162;" horiz-adv-x="592" 
d="M20 650h532v-150h-183v-500h-20l-18 -29q70 -15 70 -72q0 -30 -22 -49.5t-50 -26.5t-61 -7q-46 0 -65 10v69q18 -13 65 -13q37 0 37 17q0 16 -40 16q-33 0 -44 -6l-1 54l22 37h-38v500h-184v150z" />
    <glyph glyph-name="uni0163" unicode="&#x163;" horiz-adv-x="357" 
d="M67 460v142h160v-142h90v-120h-90v-165q0 -9 1 -17t4 -13t5 -9t7 -6.5t7.5 -4t9 -2t9.5 -0.5h42v-123h-26l-18 -29q70 -15 70 -72q0 -30 -22 -49.5t-50 -26.5t-61 -7q-46 0 -65 10v69q18 -13 65 -13q37 0 37 17q0 16 -40 16q-34 0 -44 -6l-1 54l24 40q-114 16 -114 145
v192h-57v120h57z" />
    <glyph glyph-name="Tcaron" unicode="&#x164;" horiz-adv-x="592" 
d="M20 650h532v-150h-183v-500h-165v500h-184v150zM116 833h130l39 -64l39 64h130l-80 -123h-178z" />
    <glyph glyph-name="tcaron" unicode="&#x165;" horiz-adv-x="357" 
d="M10 340v120h57v142h160v-142h90v-120h-90v-165q0 -9 1 -17t4 -13t5 -9t7 -6.5t7.5 -4t9 -2t9.5 -0.5h42v-123h-94q-151 0 -151 148v192h-57zM-27 773h130l39 -64l39 64h130l-80 -123h-178z" />
    <glyph glyph-name="Tbar" unicode="&#x166;" horiz-adv-x="592" 
d="M204 0v194h-94v150h94v156h-184v150h532v-150h-183v-156h94v-150h-94v-194h-165z" />
    <glyph glyph-name="Utilde" unicode="&#x168;" horiz-adv-x="614" 
d="M40 650h165v-399q0 -54 26.5 -76.5t65.5 -22.5t65.5 22.5t26.5 76.5v399h165v-418q0 -100 -68 -170q-69 -70 -189 -70t-188.5 70t-68.5 170v418zM118 703q0 60 29 98t86 38q48 0 80 -36q21 -23 41 -23q31 0 31 46h90q0 -60 -30 -98t-91 -38q-50 0 -81 36q-21 23 -36 23
q-29 0 -29 -46h-90z" />
    <glyph glyph-name="utilde" unicode="&#x169;" horiz-adv-x="553" 
d="M40 179v281h160v-255q0 -26 8 -44t21 -24.5t21.5 -8.5t17.5 -2q8 0 16.5 2t21 8.5t20 24.5t7.5 44v255h160v-460h-160v32q-45 -40 -116 -40q-32 0 -61 9t-56 28.5t-43.5 58t-16.5 91.5zM118 618q29 38 86 38q48 0 80 -36q21 -23 41 -23q31 0 31 46h90q0 -60 -30 -98
t-91 -38q-49 0 -81 36q-21 23 -36 23q-29 0 -29 -46h-90q0 60 29 98z" />
    <glyph glyph-name="Umacron" unicode="&#x16a;" horiz-adv-x="614" 
d="M40 650h165v-399q0 -54 26.5 -76.5t65.5 -22.5t65.5 22.5t26.5 76.5v399h165v-418q0 -100 -68 -170q-69 -70 -189 -70t-188.5 70t-68.5 170v418zM191 806h212v-100h-212v100z" />
    <glyph glyph-name="umacron" unicode="&#x16b;" horiz-adv-x="553" 
d="M40 179v281h160v-255q0 -26 8 -44t21 -24.5t21.5 -8.5t17.5 -2q8 0 16.5 2t21 8.5t20 24.5t7.5 44v255h160v-460h-160v32q-45 -40 -116 -40q-32 0 -61 9t-56 28.5t-43.5 58t-16.5 91.5zM374 623v-100h-212v100h212z" />
    <glyph glyph-name="Uring" unicode="&#x16e;" horiz-adv-x="614" 
d="M40 650h165v-399q0 -54 26.5 -76.5t65.5 -22.5t65.5 22.5t26.5 76.5v399h165v-418q0 -100 -68 -170q-69 -70 -189 -70t-188.5 70t-68.5 170v418zM219 863q30 28 78 28q49 0 78 -28t29 -73q0 -42 -29 -71q-30 -29 -78 -29t-78 29t-30 71q0 45 30 73zM263 790q0 -33 34 -33
q35 0 35 33q0 7 -2 13.5t-10.5 13.5t-22.5 7q-34 0 -34 -34z" />
    <glyph glyph-name="uring" unicode="&#x16f;" horiz-adv-x="553" 
d="M40 179v281h160v-255q0 -26 8 -44t21 -24.5t21.5 -8.5t17.5 -2q8 0 16.5 2t21 8.5t20 24.5t7.5 44v255h160v-460h-160v32q-45 -40 -116 -40q-32 0 -61 9t-56 28.5t-43.5 58t-16.5 91.5zM160 607q0 45 30 73t78 28q49 0 78 -28t29 -73q0 -42 -29 -71q-30 -29 -78 -29
t-78 29t-30 71zM234 607q0 -33 34 -33q35 0 35 33q0 7 -2 13.5t-10.5 13.5t-22.5 7q-34 0 -34 -34z" />
    <glyph glyph-name="Uhungarumlaut" unicode="&#x170;" horiz-adv-x="614" 
d="M40 650h165v-399q0 -54 26.5 -76.5t65.5 -22.5t65.5 22.5t26.5 76.5v399h165v-418q0 -100 -68 -170q-69 -70 -189 -70t-188.5 70t-68.5 170v418zM330 710l61 123h134l-85 -123h-110zM125 710l61 123h134l-85 -123h-110z" />
    <glyph glyph-name="uhungarumlaut" unicode="&#x171;" horiz-adv-x="553" 
d="M40 179v281h160v-255q0 -26 8 -44t21 -24.5t21.5 -8.5t17.5 -2q8 0 16.5 2t21 8.5t20 24.5t7.5 44v255h160v-460h-160v32q-45 -40 -116 -40q-32 0 -61 9t-56 28.5t-43.5 58t-16.5 91.5zM301 527l61 123h134l-85 -123h-110zM96 527l61 123h134l-85 -123h-110z" />
    <glyph glyph-name="Uogonek" unicode="&#x172;" horiz-adv-x="614" 
d="M40 650h165v-399q0 -54 26.5 -76.5t65.5 -22.5t65.5 22.5t26.5 76.5v399h165v-418q0 -90 -55.5 -156.5t-154.5 -80.5q-43 -31 -43 -60q0 -9 6.5 -15.5t16 -7.5t12.5 -1q16 0 41 10v-90q-28 -7 -54 -7q-34 0 -75 15.5t-41 70.5q0 48 46 85q-100 13 -156.5 80t-56.5 157
v418z" />
    <glyph glyph-name="uogonek" unicode="&#x173;" horiz-adv-x="553" 
d="M200 460v-255q0 -26 8 -44t21 -24.5t21.5 -8.5t17.5 -2q8 0 16.5 2t21 8.5t20 24.5t7.5 44v255h160v-460h-23q-38 -29 -38 -57q0 -9 6.5 -15.5t16 -7.5t12.5 -1q16 0 41 10v-90q-28 -7 -54 -7q-34 0 -75 15.5t-41 70.5q0 47 43 82h-48v32q-45 -40 -116 -40q-32 0 -61 9
t-56 28.5t-43.5 58t-16.5 91.5v281h160z" />
    <glyph glyph-name="Wcircumflex" unicode="&#x174;" horiz-adv-x="953" 
d="M10 650h175l116 -351l115 351h121l111 -329l110 329h175l-217 -650h-142l-102 309l-103 -309h-142zM383 833h178l80 -123h-130l-39 69l-39 -69h-130z" />
    <glyph glyph-name="wcircumflex" unicode="&#x175;" horiz-adv-x="783" 
d="M10 460h165l69 -234l83 234h120l83 -234l68 234h165l-147 -460h-155l-76 222l-75 -222h-155zM216 527l80 123h178l80 -123h-130l-39 69l-39 -69h-130z" />
    <glyph glyph-name="Ycircumflex" unicode="&#x176;" horiz-adv-x="649" 
d="M5 650h189l123 -208l123 208h189l-229 -380v-270h-165v268zM148 710l80 123h178l80 -123h-130l-39 69l-39 -69h-130z" />
    <glyph glyph-name="ycircumflex" unicode="&#x177;" horiz-adv-x="549" 
d="M10 460h165l94 -239l95 239h165l-256 -644h-155l73 184zM180 650h178l80 -123h-130l-39 69l-39 -69h-130z" />
    <glyph glyph-name="Ydieresis" unicode="&#x178;" horiz-adv-x="649" 
d="M5 650h189l123 -208l123 208h189l-229 -380v-270h-165v268zM172 810q21 18 48 18t48.5 -18.5t21.5 -48.5q0 -32 -21 -51q-22 -20 -49 -20t-48.5 19.5t-21.5 51.5q0 30 22 49zM345 761q0 30 21.5 48.5t48.5 18.5t48.5 -18.5t21.5 -48.5q0 -32 -21 -51q-22 -20 -49 -20
t-48.5 19.5t-21.5 51.5z" />
    <glyph glyph-name="Zacute" unicode="&#x179;" horiz-adv-x="544" 
d="M206 710l59 123h134l-63 -123h-130zM30 0v137l265 362h-259v151h468v-138l-268 -361l263 -1v-150h-469z" />
    <glyph glyph-name="zacute" unicode="&#x17a;" horiz-adv-x="420" 
d="M20 118l157 212h-157v130h360v-118l-158 -212h158v-130h-360v118zM193 650h134l-63 -123h-130z" />
    <glyph glyph-name="Zdotaccent" unicode="&#x17b;" horiz-adv-x="544" 
d="M30 137l265 362h-259v151h468v-138l-268 -361l263 -1v-150h-469v137zM202 761q0 30 21.5 48.5t48.5 18.5t48.5 -18.5t21.5 -48.5q0 -32 -21 -51q-22 -20 -49 -20t-48.5 19.5t-21.5 51.5z" />
    <glyph glyph-name="zdotaccent" unicode="&#x17c;" horiz-adv-x="420" 
d="M20 118l157 212h-157v130h360v-118l-158 -212h158v-130h-360v118zM130 578q0 30 21.5 48.5t48.5 18.5t48.5 -18.5t21.5 -48.5q0 -32 -21 -51q-22 -20 -49 -20t-48.5 19.5t-21.5 51.5z" />
    <glyph glyph-name="Zcaron" unicode="&#x17d;" horiz-adv-x="544" 
d="M30 137l265 362h-259v151h468v-138l-268 -361l263 -1v-150h-469v137zM103 833h130l39 -64l39 64h130l-80 -123h-178z" />
    <glyph glyph-name="zcaron" unicode="&#x17e;" horiz-adv-x="420" 
d="M20 118l157 212h-157v130h360v-118l-158 -212h158v-130h-360v118zM31 650h130l39 -64l39 64h130l-80 -123h-178z" />
    <glyph glyph-name="uni01CD" unicode="&#x1cd;" horiz-adv-x="677" 
d="M271 650h125l261 -650h-175l-28 72h-241l-28 -72h-175zM166 833h130l39 -64l39 64h130l-80 -123h-178zM396 222l-63 164l-63 -164h126z" />
    <glyph glyph-name="uni01CE" unicode="&#x1ce;" 
d="M81 401q61 66 153 66q65 0 106 -36v29h160v-460h-160v28q-43 -36 -106 -36q-92 0 -153 67.5t-61 170.5q0 104 61 171zM126 650h130l39 -64l39 64h130l-80 -123h-178zM175 230q0 -38 23 -63t60 -25t59.5 25t22.5 63t-22.5 62.5t-59.5 24.5t-60 -24.5t-23 -62.5z" />
    <glyph glyph-name="uni01CF" unicode="&#x1cf;" horiz-adv-x="265" 
d="M40 650h165v-650h-165v650zM-48 833h130l39 -64l39 64h130l-80 -123h-178z" />
    <glyph glyph-name="uni01D0" unicode="&#x1d0;" horiz-adv-x="261" 
d="M40 460h161l-1 -460h-160v460zM-49 650h130l39 -64l39 64h130l-80 -123h-178z" />
    <glyph glyph-name="uni01D1" unicode="&#x1d1;" horiz-adv-x="731" 
d="M30 325q0 145 92.5 239t236.5 94t235.5 -94t91.5 -239t-91 -239q-92 -94 -236 -94t-236.5 94t-92.5 239zM195 325q0 -74 46 -121q45 -47 118 -47t117.5 47t44.5 121t-44.5 121t-117.5 47t-118.5 -47t-45.5 -121zM190 833h130l39 -64l39 64h130l-80 -123h-178z" />
    <glyph glyph-name="uni01D2" unicode="&#x1d2;" horiz-adv-x="539" 
d="M20 230q0 105 67.5 172.5t172.5 67.5t172 -67.5t67 -172.5q0 -103 -67 -171q-68 -69 -172 -69t-172 68.5t-68 171.5zM221 650l39 -64l39 64h130l-80 -123h-178l-80 123h130zM200 167q23 -25 60 -25t59.5 25t22.5 63t-22.5 62.5t-59.5 24.5t-60 -24.5t-23 -62.5t23 -63z
" />
    <glyph glyph-name="uni01D3" unicode="&#x1d3;" horiz-adv-x="614" 
d="M40 232v418h165v-399q0 -54 26.5 -76.5t65.5 -22.5t65.5 22.5t26.5 76.5v399h165v-418q0 -100 -68 -170q-69 -70 -189 -70t-188.5 70t-68.5 170zM128 833h130l39 -64l39 64h130l-80 -123h-178z" />
    <glyph glyph-name="uni01D4" unicode="&#x1d4;" horiz-adv-x="553" 
d="M40 460h160v-255q0 -26 8 -44t21 -24.5t21.5 -8.5t17.5 -2q8 0 16.5 2t21 8.5t20 24.5t7.5 44v255h160v-460h-160v32q-45 -40 -116 -40q-32 0 -61 9t-56 28.5t-43.5 58t-16.5 91.5v281zM229 650l39 -64l39 64h130l-80 -123h-178l-80 123h130z" />
    <glyph glyph-name="Gcaron" unicode="&#x1e6;" horiz-adv-x="721" 
d="M123 564q92 94 236 94q85 0 152.5 -34.5t110.5 -95.5l-133 -99q-47 64 -130 64q-73 0 -118.5 -47t-45.5 -121t45.5 -121t118.5 -47q39 0 73.5 19.5t47.5 57.5h-131v150h322v-74q-5 -141 -89 -229.5t-223 -88.5q-144 0 -236.5 94t-92.5 239t93 239zM319 833l39 -64l39 64
h130l-80 -123h-178l-80 123h130z" />
    <glyph glyph-name="gcaron" unicode="&#x1e7;" 
d="M81 400q60 67 152 67q64 0 107 -37v30h160v-429q0 -103 -64.5 -167t-184.5 -64q-62 0 -113.5 23t-84.5 62l103 87q38 -38 95 -38q9 0 20.5 2.5t28.5 11t28.5 29.5t11.5 52q-43 -37 -107 -37q-92 0 -152.5 67.5t-60.5 170.5t61 170zM231 650l39 -64l39 64h130l-80 -123
h-178l-80 123h130zM198 167q22 -25 59 -25t60 25t23 63t-23 62.5t-60 24.5t-59.5 -24.5t-22.5 -62.5t23 -63z" />
    <glyph glyph-name="uni0218" unicode="&#x218;" horiz-adv-x="615" 
d="M152 247q18 -26 69.5 -60t106.5 -34q38 0 50 10.5t12 27.5q0 9 -9 17.5t-24.5 15.5t-31 12t-35 11t-29.5 10q-3 1 -30 10.5t-45 16.5t-46.5 24t-46.5 36t-31.5 49t-13.5 65q0 54 22.5 95t60.5 64t83 34t95 11q91 0 166 -45.5t96 -100.5l-129 -87q-17 22 -60.5 45
t-93.5 23t-50 -30q0 -10 8.5 -19.5t23.5 -16.5t30 -12t34 -11t29 -10q2 -1 24.5 -9t37 -14.5t39.5 -18.5t41.5 -26.5t34 -33.5t26.5 -44t9 -53q0 -102 -72.5 -156.5t-193.5 -54.5q-108 0 -184.5 49.5t-104.5 113.5zM256 -50h130l-66 -120h-126z" />
    <glyph glyph-name="uni0219" unicode="&#x219;" horiz-adv-x="451" 
d="M118 173q7 -16 42 -39t67 -23q39 0 39 20q0 6 -4.5 11.5t-13.5 9.5t-17 7t-20.5 7t-19.5 7l-18 7q-18 6 -27.5 10.5t-29 14t-31.5 20t-25.5 25.5t-20 33.5t-6.5 40.5q0 74 55.5 110.5t136.5 36.5q73 0 125 -30t74 -71l-102 -68q-13 15 -44.5 31.5t-58.5 16.5
q-31 0 -31 -18q0 -7 4.5 -13t13.5 -10.5t17 -8t22 -7.5l19 -7q1 -1 13 -5t19.5 -7t22 -9.5t24 -13t23 -15t22 -19t17 -22.5t12.5 -27t4 -31q0 -74 -52 -113t-144 -39q-83 0 -139 34t-76 80zM169 -53h130l-66 -120h-126z" />
    <glyph glyph-name="uni021A" unicode="&#x21a;" horiz-adv-x="592" 
d="M20 650h532v-150h-183v-500h-165v500h-184v150zM165 -168l62 120h130l-66 -120h-126z" />
    <glyph glyph-name="uni021B" unicode="&#x21b;" horiz-adv-x="357" 
d="M67 460v142h160v-142h90v-120h-90v-165q0 -9 1 -17t4 -13t5 -9t7 -6.5t7.5 -4t9 -2t9.5 -0.5h42v-123h-94q-151 0 -151 148v192h-57v120h57zM164 -45h130l-66 -120h-126z" />
    <glyph glyph-name="circumflex" unicode="&#x2c6;" horiz-adv-x="378" 
d="M20 527l80 123h178l80 -123h-130l-39 69l-39 -69h-130z" />
    <glyph glyph-name="caron" unicode="&#x2c7;" horiz-adv-x="378" 
d="M100 527l-80 123h130l39 -64l39 64h130l-80 -123h-178z" />
    <glyph glyph-name="breve" unicode="&#x2d8;" horiz-adv-x="296" 
d="M149 525q-58 0 -93.5 30.5t-35.5 91.5v3h90v-3q0 -42 39 -42q37 0 37 42v3h90v-3q0 -61 -34.5 -91.5t-92.5 -30.5z" />
    <glyph glyph-name="dotaccent" unicode="&#x2d9;" horiz-adv-x="180" 
d="M90 563q-27 0 -48.5 19.5t-21.5 51.5q0 30 21.5 48.5t48.5 18.5t48.5 -18.5t21.5 -48.5q0 -32 -21.5 -51.5t-48.5 -19.5z" />
    <glyph glyph-name="ring" unicode="&#x2da;" horiz-adv-x="255" 
d="M128 486q-48 0 -78 29t-30 71q0 45 30 73t78 28q49 0 78 -28t29 -73q0 -42 -29.5 -71t-77.5 -29zM128 553q35 0 35 33q0 7 -2 13.5t-10.5 13.5t-22.5 7q-34 0 -34 -34q0 -33 34 -33z" />
    <glyph glyph-name="ogonek" unicode="&#x2db;" horiz-adv-x="202" 
d="M182 -175q-64 -15 -113 4.5t-49 74.5q0 34 19 60t40 36h80l-5 -4q-6 -4 -9.5 -7t-10 -8.5t-11 -11t-8.5 -12t-6.5 -14t-2.5 -14.5q0 -9 6.5 -15.5t23.5 -8.5t46 10v-90z" />
    <glyph glyph-name="tilde" unicode="&#x2dc;" horiz-adv-x="397" 
d="M256 557q-50 0 -81 36q-21 23 -36 23q-29 0 -29 -46h-90q0 60 29 98t86 38q48 0 80 -36q21 -23 41 -23q31 0 31 46h90q0 -60 -30 -98t-91 -38z" />
    <glyph glyph-name="hungarumlaut" unicode="&#x2dd;" horiz-adv-x="440" 
d="M20 527l61 123h134l-85 -123h-110zM225 527l61 123h134l-85 -123h-110z" />
    <glyph glyph-name="gravecomb" unicode="&#x300;" horiz-adv-x="0" 
d="M-150 527l-63 123h134l59 -123h-130z" />
    <glyph glyph-name="acutecomb" unicode="&#x301;" horiz-adv-x="0" 
d="M-213 527l59 123h134l-63 -123h-130z" />
    <glyph glyph-name="uni0302" unicode="&#x302;" horiz-adv-x="0" 
d="M-278 650h178l80 -123h-130l-39 69l-39 -69h-130z" />
    <glyph glyph-name="tildecomb" unicode="&#x303;" horiz-adv-x="0" 
d="M-348 668q29 38 86 38q48 0 80 -36q21 -23 41 -23q31 0 31 46h90q0 -60 -30 -98t-91 -38q-49 0 -81 36q-21 23 -36 23q-29 0 -29 -46h-90q0 60 29 98z" />
    <glyph glyph-name="uni0304" unicode="&#x304;" horiz-adv-x="0" 
d="M-232 550v100h212v-100h-212z" />
    <glyph glyph-name="uni0306" unicode="&#x306;" horiz-adv-x="0" 
d="M-296 650h90v-3q0 -18 13.5 -31t35.5 -13t34.5 13t12.5 31v3h90v-3q0 -57 -37.5 -90.5t-99.5 -33.5q-63 0 -101 33.5t-38 90.5v3z" />
    <glyph glyph-name="uni0307" unicode="&#x307;" horiz-adv-x="0" 
d="M-160 634q0 30 21.5 48.5t48.5 18.5t48.5 -18.5t21.5 -48.5q0 -32 -22 -51q-21 -20 -48 -20t-48.5 19.5t-21.5 51.5z" />
    <glyph glyph-name="uni0308" unicode="&#x308;" horiz-adv-x="0" 
d="M-169 634q0 30 21.5 48.5t48.5 18.5t48.5 -18.5t21.5 -48.5q0 -32 -22 -51q-21 -20 -48 -20t-48.5 19.5t-21.5 51.5zM-364 634q0 30 21.5 48.5t48.5 18.5t48.5 -18.5t21.5 -48.5q0 -32 -22 -51q-21 -20 -48 -20t-48.5 19.5t-21.5 51.5z" />
    <glyph glyph-name="uni030A" unicode="&#x30a;" horiz-adv-x="0" 
d="M-235 586q0 45 30 73t78 28q49 0 78 -28t29 -73q0 -42 -30 -71q-29 -29 -77 -29t-78 29t-30 71zM-161 586q0 -33 34 -33q35 0 35 33q0 7 -2 13.5t-10.5 13.5t-22.5 7q-34 0 -34 -34z" />
    <glyph glyph-name="uni030B" unicode="&#x30b;" horiz-adv-x="0" 
d="M-154 650h134l-85 -123h-110zM-420 527l61 123h134l-85 -123h-110z" />
    <glyph glyph-name="uni030C" unicode="&#x30c;" horiz-adv-x="0" 
d="M-358 650h130l39 -64l39 64h130l-80 -123h-178z" />
    <glyph glyph-name="uni0312" unicode="&#x312;" horiz-adv-x="0" 
d="M-93 710h73q-10 -7 -26.5 -23t-20.5 -22q42 -13 42 -58q0 -27 -18 -46q-17 -20 -50 -20t-52.5 20t-19.5 46q0 53 72 103z" />
    <glyph glyph-name="dotbelowcomb" unicode="&#x323;" horiz-adv-x="0" 
d="M-160 -67q0 30 21.5 48.5t48.5 18.5t48.5 -18.5t21.5 -48.5q0 -32 -22 -52q-21 -19 -48 -19t-48.5 19.5t-21.5 51.5z" />
    <glyph glyph-name="uni0326" unicode="&#x326;" horiz-adv-x="0" 
d="M-212 -120l62 120h130l-66 -120h-126z" />
    <glyph glyph-name="uni0327" unicode="&#x327;" horiz-adv-x="0" 
d="M-162 -132q37 0 37 17q0 16 -40 16q-33 0 -44 -6l-1 54l31 51h106l-26 -43q70 -15 70 -72q0 -30 -22 -49.5t-50 -26.5t-61 -7q-46 0 -65 10v69q18 -13 65 -13z" />
    <glyph glyph-name="uni0328" unicode="&#x328;" horiz-adv-x="0" 
d="M-169 -37q21 26 43 37h88l-9 -6q-9 -6 -15.5 -12t-15 -14.5t-13.5 -18.5t-5 -20q0 -9 6.5 -15.5t16 -7.5t12.5 -1q16 0 41 10v-90q-28 -7 -54 -7q-34 0 -75 15.5t-41 70.5q0 33 21 59z" />
    <glyph glyph-name="uni0331" unicode="&#x331;" horiz-adv-x="0" 
d="M-219 -99v99h199v-99h-199z" />
    <glyph glyph-name="Gamma" unicode="&#x393;" horiz-adv-x="468" 
d="M40 0v650h368v-150h-208v-500h-160z" />
    <glyph glyph-name="uni0394" unicode="&#x394;" horiz-adv-x="649" 
d="M40 0v140l207 510h135l207 -510v-140h-549zM210 140h207l-104 262z" />
    <glyph glyph-name="Sigma" unicode="&#x3a3;" horiz-adv-x="585" 
d="M40 0v115l223 207l-223 218v110h485v-150h-221l176 -178l-173 -172h218v-150h-485z" />
    <glyph glyph-name="Phi" unicode="&#x3a6;" horiz-adv-x="767" 
d="M309 -8v73q-125 15 -197 81.5t-72 179.5q0 111 72 177.5t197 81.5v73h130v-73q125 -14 196.5 -80.5t71.5 -178.5q0 -113 -71.5 -180t-196.5 -81v-73h-130zM309 227v196q-109 -18 -109 -97q0 -81 109 -99zM439 227q108 18 108 99q0 79 -108 97v-196z" />
    <glyph glyph-name="Psi" unicode="&#x3a8;" horiz-adv-x="755" 
d="M303 0v150q-115 18 -189 95.5t-74 208.5v196h160v-196q0 -127 103 -152v348h130v-348q102 25 102 152v196h160v-197q0 -131 -73.5 -208t-188.5 -95v-150h-130z" />
    <glyph glyph-name="uni03A9" unicode="&#x3a9;" horiz-adv-x="786" 
d="M40 4v150h71q-51 76 -51 171q0 146 90 239.5t234 93.5t233 -93.5t89 -239.5q0 -96 -51 -171h71v-150h-294v151q40 18 65.5 42t35 52.5t11.5 45.5t2 41q0 22 -7.5 47t-23.5 52.5t-50.5 45t-80.5 17.5t-80.5 -17.5t-51.5 -45t-24.5 -52.5t-7.5 -47q0 -24 2 -40t11.5 -45
t35 -53t65.5 -41v-153h-294z" />
    <glyph glyph-name="uni1E04" unicode="&#x1e04;" horiz-adv-x="604" 
d="M346 650q80 0 137 -50.5t57 -139.5q0 -82 -52 -124q76 -47 76 -143q0 -88 -61 -140.5t-142 -52.5h-321v650h306zM334 150q28 0 44 16.5t16 41.5q0 24 -17 41t-43 17h-129v-116h129zM220 -60q21 19 48 19t48.5 -18.5t21.5 -48.5q0 -32 -21 -52q-22 -19 -49 -19t-48.5 19.5
t-21.5 51.5q0 30 22 48zM205 500v-99h112q24 0 38.5 13t14.5 37t-14.5 36.5t-38.5 12.5h-112z" />
    <glyph glyph-name="uni1E05" unicode="&#x1e05;" 
d="M40 650h160v-219q41 36 106 36q92 0 153 -66.5t61 -170.5q0 -103 -61 -170.5t-153 -67.5q-63 0 -106 36v-28h-160v650zM200 230q0 -38 23 -63q22 -25 59 -25t60 25t23 63t-23 62.5t-60 24.5t-59.5 -24.5t-22.5 -62.5zM225 -116q0 30 21.5 48.5t48.5 18.5t48.5 -18.5
t21.5 -48.5q0 -32 -21 -52q-22 -19 -49 -19t-48.5 19.5t-21.5 51.5z" />
    <glyph glyph-name="uni1E0C" unicode="&#x1e0c;" horiz-adv-x="658" 
d="M40 0v650h254q142 0 230.5 -90t88.5 -235t-88.5 -235t-230.5 -90h-254zM205 160h89q12 0 26.5 2t39 11.5t43 25.5t32 49t13.5 77t-14 76.5t-32.5 49t-42.5 26t-38.5 11.5t-26.5 2h-89v-330zM213 -60q21 19 48 19t48.5 -18.5t21.5 -48.5q0 -32 -21 -52q-22 -19 -49 -19
t-48.5 19.5t-21.5 51.5q0 30 22 48z" />
    <glyph glyph-name="uni1E0D" unicode="&#x1e0d;" 
d="M81 401q61 66 153 66q65 0 106 -36v219h160v-650h-160v28q-43 -36 -106 -36q-92 0 -153 67.5t-61 170.5q0 104 61 171zM175 230q0 -38 23 -63t60 -25t59.5 25t22.5 63t-22.5 62.5t-59.5 24.5t-60 -24.5t-23 -62.5zM223 -68q21 19 48 19t48.5 -18.5t21.5 -48.5
q0 -32 -21 -52q-22 -19 -49 -19t-48.5 19.5t-21.5 51.5q0 30 22 48z" />
    <glyph glyph-name="uni1E24" unicode="&#x1e24;" horiz-adv-x="657" 
d="M205 650v-245h227v245h165v-650h-165v245h-227v-245h-165v650h165zM247 -103q0 30 21.5 48.5t48.5 18.5t48.5 -18.5t21.5 -48.5q0 -32 -21 -52q-22 -19 -49 -19t-48.5 19.5t-21.5 51.5z" />
    <glyph glyph-name="uni1E25" unicode="&#x1e25;" horiz-adv-x="553" 
d="M40 650h160v-223q45 40 116 40q32 0 61 -9t56 -28.5t43.5 -58t16.5 -91.5v-280h-160v254q0 26 -8 44t-21 24.5t-21.5 8.5t-17.5 2q-8 0 -16.5 -2t-21 -8.5t-20 -24.5t-7.5 -44v-254h-160v650zM195 -108q0 30 21.5 48.5t48.5 18.5t48.5 -18.5t21.5 -48.5q0 -32 -21 -52
q-22 -19 -49 -19t-48.5 19.5t-21.5 51.5z" />
    <glyph glyph-name="uni1E36" unicode="&#x1e36;" horiz-adv-x="531" 
d="M205 650v-500h286v-150h-451v650h165zM194 -108q0 30 21.5 48.5t48.5 18.5t48.5 -18.5t21.5 -48.5q0 -32 -21 -52q-22 -19 -49 -19t-48.5 19.5t-21.5 51.5z" />
    <glyph glyph-name="uni1E37" unicode="&#x1e37;" horiz-adv-x="261" 
d="M201 650l-1 -650h-160v650h161zM72 -60q21 19 48 19t48.5 -18.5t21.5 -48.5q0 -32 -21 -52q-22 -19 -49 -19t-48.5 19.5t-21.5 51.5q0 30 22 48z" />
    <glyph glyph-name="uni1E3E" unicode="&#x1e3e;" horiz-adv-x="770" 
d="M205 650l170 -339l170 339h165v-650h-165v310l-113 -239h-114l-113 239v-310h-165v650h165zM368 833h134l-63 -123h-130z" />
    <glyph glyph-name="uni1E3F" unicode="&#x1e3f;" horiz-adv-x="826" 
d="M40 0v460h160v-39q47 46 112 46q91 0 137 -62q52 62 146 62q32 0 60 -9t54 -28.5t41.5 -58t15.5 -91.5v-280h-160v257q0 25 -8 41t-21 21.5t-20 7t-14 1.5t-13.5 -1.5t-19 -7t-20 -21.5t-7.5 -41v-257h-160v257q0 25 -8 41t-21 21.5t-20 7t-14 1.5t-13.5 -1.5t-19 -7
t-20 -21.5t-7.5 -41v-257h-160zM396 664h134l-63 -123h-130z" />
    <glyph glyph-name="uni1E44" unicode="&#x1e44;" horiz-adv-x="647" 
d="M40 650h160l222 -355v355h165v-650h-160l-222 354v-354h-165v650zM244 761q0 30 21.5 48.5t48.5 18.5t48.5 -18.5t21.5 -48.5q0 -32 -21 -51q-22 -20 -49 -20t-48.5 19.5t-21.5 51.5z" />
    <glyph glyph-name="uni1E45" unicode="&#x1e45;" horiz-adv-x="553" 
d="M40 0v460h160v-33q45 40 116 40q32 0 61 -9t56 -28.5t43.5 -58t16.5 -91.5v-280h-160v254q0 26 -8 44t-21 24.5t-21.5 8.5t-17.5 2q-8 0 -16.5 -2t-21 -8.5t-20 -24.5t-7.5 -44v-254h-160zM217 627q21 18 48 18t48.5 -18.5t21.5 -48.5q0 -32 -21 -51q-22 -20 -49 -20
t-48.5 19.5t-21.5 51.5q0 30 22 49z" />
    <glyph glyph-name="uni1E46" unicode="&#x1e46;" horiz-adv-x="647" 
d="M40 650h160l222 -355v355h165v-650h-160l-222 354v-354h-165v650zM246 -108q0 30 21.5 48.5t48.5 18.5t48.5 -18.5t21.5 -48.5q0 -32 -21 -52q-22 -19 -49 -19t-48.5 19.5t-21.5 51.5z" />
    <glyph glyph-name="uni1E47" unicode="&#x1e47;" horiz-adv-x="553" 
d="M40 460h160v-33q45 40 116 40q32 0 61 -9t56 -28.5t43.5 -58t16.5 -91.5v-280h-160v254q0 26 -8 44t-21 24.5t-21.5 8.5t-17.5 2q-8 0 -16.5 -2t-21 -8.5t-20 -24.5t-7.5 -44v-254h-160v460zM195 -108q0 30 21.5 48.5t48.5 18.5t48.5 -18.5t21.5 -48.5q0 -32 -21 -52
q-22 -19 -49 -19t-48.5 19.5t-21.5 51.5z" />
    <glyph glyph-name="uni1E62" unicode="&#x1e62;" horiz-adv-x="615" 
d="M152 247q18 -26 69.5 -60t106.5 -34q38 0 50 10.5t12 27.5q0 9 -9 17.5t-24.5 15.5t-31 12t-35 11t-29.5 10q-3 1 -30 10.5t-45 16.5t-46.5 24t-46.5 36t-31.5 49t-13.5 65q0 54 22.5 95t60.5 64t83 34t95 11q91 0 166 -45.5t96 -100.5l-129 -87q-17 22 -60.5 45
t-93.5 23t-50 -30q0 -10 8.5 -19.5t23.5 -16.5t30 -12t34 -11t29 -10q2 -1 24.5 -9t37 -14.5t39.5 -18.5t41.5 -26.5t34 -33.5t26.5 -44t9 -53q0 -102 -72.5 -156.5t-193.5 -54.5q-108 0 -184.5 49.5t-104.5 113.5zM266 -74q21 19 48 19t48.5 -18.5t21.5 -48.5
q0 -32 -21 -52q-22 -19 -49 -19t-48.5 19.5t-21.5 51.5q0 30 22 48z" />
    <glyph glyph-name="uni1E6C" unicode="&#x1e6c;" horiz-adv-x="592" 
d="M552 650v-150h-183v-500h-165v500h-184v150h532zM215 -92q0 30 21.5 48.5t48.5 18.5t48.5 -18.5t21.5 -48.5q0 -32 -21 -52q-22 -19 -49 -19t-48.5 19.5t-21.5 51.5z" />
    <glyph glyph-name="uni1E6D" unicode="&#x1e6d;" horiz-adv-x="357" 
d="M10 460h57v142h160v-142h90v-120h-90v-165q0 -9 1 -17t4 -13t5 -9t7 -6.5t7.5 -4t9 -2t9.5 -0.5h42v-123h-94q-151 0 -151 148v192h-57v120zM152 -105q0 30 21.5 48.5t48.5 18.5t48.5 -18.5t21.5 -48.5q0 -32 -21 -52q-22 -19 -49 -19t-48.5 19.5t-21.5 51.5z" />
    <glyph glyph-name="Wgrave" unicode="&#x1e80;" horiz-adv-x="953" 
d="M10 650h175l116 -351l115 351h121l111 -329l110 329h175l-217 -650h-142l-102 309l-103 -309h-142zM346 833h134l59 -123h-130z" />
    <glyph glyph-name="wgrave" unicode="&#x1e81;" horiz-adv-x="783" 
d="M10 460h165l69 -234l83 234h120l83 -234l68 234h165l-147 -460h-155l-76 222l-75 -222h-155zM259 650h134l59 -123h-130z" />
    <glyph glyph-name="Wacute" unicode="&#x1e82;" horiz-adv-x="953" 
d="M10 650h175l116 -351l115 351h121l111 -329l110 329h175l-217 -650h-142l-102 309l-103 -309h-142zM406 710l59 123h134l-63 -123h-130z" />
    <glyph glyph-name="wacute" unicode="&#x1e83;" horiz-adv-x="783" 
d="M10 460h165l69 -234l83 234h120l83 -234l68 234h165l-147 -460h-155l-76 222l-75 -222h-155zM319 527l59 123h134l-63 -123h-130z" />
    <glyph glyph-name="Wdieresis" unicode="&#x1e84;" horiz-adv-x="953" 
d="M10 650h175l116 -351l115 351h121l111 -329l110 329h175l-217 -650h-142l-102 309l-103 -309h-142zM500 761q0 30 21.5 48.5t48.5 18.5t48.5 -18.5t21.5 -48.5q0 -32 -21 -51q-22 -20 -49 -20t-48.5 19.5t-21.5 51.5zM305 761q0 30 21.5 48.5t48.5 18.5t48.5 -18.5
t21.5 -48.5q0 -32 -21 -51q-22 -20 -49 -20t-48.5 19.5t-21.5 51.5z" />
    <glyph glyph-name="wdieresis" unicode="&#x1e85;" horiz-adv-x="783" 
d="M10 460h165l69 -234l83 234h120l83 -234l68 234h165l-147 -460h-155l-76 222l-75 -222h-155zM240 627q21 18 48 18t48.5 -18.5t21.5 -48.5q0 -32 -21 -51q-22 -20 -49 -20t-48.5 19.5t-21.5 51.5q0 30 22 49zM413 578q0 30 21.5 48.5t48.5 18.5t48.5 -18.5t21.5 -48.5
q0 -32 -21 -51q-22 -20 -49 -20t-48.5 19.5t-21.5 51.5z" />
    <glyph glyph-name="uni1E92" unicode="&#x1e92;" horiz-adv-x="544" 
d="M30 137l265 362h-259v151h468v-138l-268 -361l263 -1v-150h-469v137zM192 -108q0 30 21.5 48.5t48.5 18.5t48.5 -18.5t21.5 -48.5q0 -32 -21 -52q-22 -19 -49 -19t-48.5 19.5t-21.5 51.5z" />
    <glyph glyph-name="uni1E93" unicode="&#x1e93;" horiz-adv-x="420" 
d="M20 118l157 212h-157v130h360v-118l-158 -212h158v-130h-360v118zM131 -108q0 30 21.5 48.5t48.5 18.5t48.5 -18.5t21.5 -48.5q0 -32 -21 -52q-22 -19 -49 -19t-48.5 19.5t-21.5 51.5z" />
    <glyph glyph-name="uni1EA0" unicode="&#x1ea0;" horiz-adv-x="677" 
d="M271 650h125l261 -650h-175l-28 72h-241l-28 -72h-175zM265 -108q0 30 21.5 48.5t48.5 18.5t48.5 -18.5t21.5 -48.5q0 -32 -21 -52q-22 -19 -49 -19t-48.5 19.5t-21.5 51.5zM396 222l-63 164l-63 -164h126z" />
    <glyph glyph-name="uni1EA1" unicode="&#x1ea1;" 
d="M81 401q61 66 153 66q65 0 106 -36v29h160v-460h-160v28q-43 -36 -106 -36q-92 0 -153 67.5t-61 170.5q0 104 61 171zM175 230q0 -38 23 -63t60 -25t59.5 25t22.5 63t-22.5 62.5t-59.5 24.5t-60 -24.5t-23 -62.5zM247 -63q21 19 48 19t48.5 -18.5t21.5 -48.5
q0 -32 -21 -52q-22 -19 -49 -19t-48.5 19.5t-21.5 51.5q0 30 22 48z" />
    <glyph glyph-name="uni1EB8" unicode="&#x1eb8;" horiz-adv-x="548" 
d="M493 650v-150h-288v-100h267v-150h-267v-100h288v-150h-453v650h453zM223 -58q21 19 48 19t48.5 -18.5t21.5 -48.5q0 -32 -21 -52q-22 -19 -49 -19t-48.5 19.5t-21.5 51.5q0 30 22 48z" />
    <glyph glyph-name="uni1EB9" unicode="&#x1eb9;" horiz-adv-x="513" 
d="M84 402q63 67 167 67q103 0 162.5 -67t59.5 -172v-42h-297q9 -30 30.5 -46.5t49.5 -16.5q54 0 86 36l108 -80q-30 -43 -81 -67t-113 -24q-106 0 -171 68t-65 172t64 172zM181 -113q0 30 21.5 48.5t48.5 18.5t48.5 -18.5t21.5 -48.5q0 -32 -21 -52q-22 -19 -49 -19
t-48.5 19.5t-21.5 51.5zM322 287q-17 57 -71 57q-52 0 -73 -57h144z" />
    <glyph glyph-name="uni1EBC" unicode="&#x1ebc;" horiz-adv-x="548" 
d="M493 650v-150h-288v-100h267v-150h-267v-100h288v-150h-453v650h453zM92 703q0 60 29 98t86 38q48 0 80 -36q21 -23 41 -23q31 0 31 46h90q0 -60 -30 -98t-91 -38q-50 0 -81 36q-21 23 -36 23q-29 0 -29 -46h-90z" />
    <glyph glyph-name="uni1EBD" unicode="&#x1ebd;" horiz-adv-x="513" 
d="M20 230q0 104 63.5 171.5t167.5 67.5q103 0 162.5 -67t59.5 -172v-42h-297q9 -30 30.5 -46.5t49.5 -16.5q54 0 86 36l108 -80q-30 -43 -81 -67t-113 -24q-106 0 -171 68t-65 172zM101 618q29 38 86 38q48 0 80 -36q21 -23 41 -23q31 0 31 46h90q0 -60 -30 -98t-91 -38
q-50 0 -81 36q-21 23 -36 23q-29 0 -29 -46h-90q0 60 29 98zM322 287q-17 57 -71 57q-52 0 -73 -57h144z" />
    <glyph glyph-name="uni1ECA" unicode="&#x1eca;" horiz-adv-x="265" 
d="M205 650v-650h-165v650h165zM74 -60q21 19 48 19t48.5 -18.5t21.5 -48.5q0 -32 -21 -52q-22 -19 -49 -19t-48.5 19.5t-21.5 51.5q0 30 22 48z" />
    <glyph glyph-name="uni1ECB" unicode="&#x1ecb;" horiz-adv-x="270" 
d="M45 460h161l-1 -460h-160v460zM66 654q25 22 59 22t59.5 -22t25.5 -60t-26 -62t-59 -24t-59 24t-26 62t26 60zM77 -68q21 19 48 19t48.5 -18.5t21.5 -48.5q0 -32 -21 -52q-22 -19 -49 -19t-48.5 19.5t-21.5 51.5q0 30 22 48z" />
    <glyph glyph-name="uni1ECC" unicode="&#x1ecc;" horiz-adv-x="731" 
d="M123 564q92 94 236 94t235.5 -94t91.5 -239t-91 -239q-92 -94 -236 -94t-236.5 94t-92.5 239t93 239zM241 204q45 -47 118 -47t117.5 47t44.5 121t-44.5 121t-117.5 47t-118.5 -47t-45.5 -121t46 -121zM289 -114q0 30 21.5 48.5t48.5 18.5t48.5 -18.5t21.5 -48.5
q0 -32 -21 -52q-22 -19 -49 -19t-48.5 19.5t-21.5 51.5z" />
    <glyph glyph-name="uni1ECD" unicode="&#x1ecd;" horiz-adv-x="539" 
d="M20 230q0 105 67.5 172.5t172.5 67.5t172 -67.5t67 -172.5q0 -103 -67 -171q-68 -69 -172 -69t-172 68.5t-68 171.5zM177 230q0 -38 23 -63t60 -25t59.5 25t22.5 63t-22.5 62.5t-59.5 24.5t-60 -24.5t-23 -62.5zM212 -68q21 19 48 19t48.5 -18.5t21.5 -48.5
q0 -32 -21 -52q-22 -19 -49 -19t-48.5 19.5t-21.5 51.5q0 30 22 48z" />
    <glyph glyph-name="uni1EE4" unicode="&#x1ee4;" horiz-adv-x="614" 
d="M40 232v418h165v-399q0 -54 26.5 -76.5t65.5 -22.5t65.5 22.5t26.5 76.5v399h165v-418q0 -100 -68 -170q-69 -70 -189 -70t-188.5 70t-68.5 170zM227 -111q0 30 21.5 48.5t48.5 18.5t48.5 -18.5t21.5 -48.5q0 -32 -21 -52q-22 -19 -49 -19t-48.5 19.5t-21.5 51.5z" />
    <glyph glyph-name="uni1EE5" unicode="&#x1ee5;" horiz-adv-x="553" 
d="M40 179v281h160v-255q0 -26 8 -44t21 -24.5t21.5 -8.5t17.5 -2q8 0 16.5 2t21 8.5t20 24.5t7.5 44v255h160v-460h-160v32q-45 -40 -116 -40q-32 0 -61 9t-56 28.5t-43.5 58t-16.5 91.5zM198 -111q0 30 21.5 48.5t48.5 18.5t48.5 -18.5t21.5 -48.5q0 -32 -21 -52
q-22 -19 -49 -19t-48.5 19.5t-21.5 51.5z" />
    <glyph glyph-name="Ygrave" unicode="&#x1ef2;" horiz-adv-x="649" 
d="M194 650l123 -208l123 208h189l-229 -380v-270h-165v268l-230 382h189zM191 833h134l59 -123h-130z" />
    <glyph glyph-name="ygrave" unicode="&#x1ef3;" horiz-adv-x="549" 
d="M175 460l94 -239l95 239h165l-256 -644h-155l73 184l-181 460h165zM143 650h134l59 -123h-130z" />
    <glyph glyph-name="uni1EF4" unicode="&#x1ef4;" horiz-adv-x="649" 
d="M5 650h189l123 -208l123 208h189l-229 -380v-270h-165v268zM247 -108q0 30 21.5 48.5t48.5 18.5t48.5 -18.5t21.5 -48.5q0 -32 -21 -52q-22 -19 -49 -19t-48.5 19.5t-21.5 51.5z" />
    <glyph glyph-name="uni1EF5" unicode="&#x1ef5;" horiz-adv-x="549" 
d="M175 460l94 -239l95 239h165l-256 -644h-155l73 184l-181 460h165zM362 -116q0 30 21.5 48.5t48.5 18.5t48.5 -18.5t21.5 -48.5q0 -32 -21 -52q-22 -19 -49 -19t-48.5 19.5t-21.5 51.5z" />
    <glyph glyph-name="uni1EF8" unicode="&#x1ef8;" horiz-adv-x="649" 
d="M194 650l123 -208l123 208h189l-229 -380v-270h-165v268l-230 382h189zM138 703q0 60 29 98t86 38q48 0 80 -36q21 -23 41 -23q31 0 31 46h90q0 -60 -30 -98t-91 -38q-50 0 -81 36q-21 23 -36 23q-29 0 -29 -46h-90z" />
    <glyph glyph-name="uni1EF9" unicode="&#x1ef9;" horiz-adv-x="549" 
d="M10 460h165l94 -239l95 239h165l-256 -644h-155l73 184zM119 618q29 38 86 38q48 0 80 -36q21 -23 41 -23q31 0 31 46h90q0 -60 -30 -98t-91 -38q-50 0 -81 36q-21 23 -36 23q-29 0 -29 -46h-90q0 60 29 98z" />
    <glyph glyph-name="endash" unicode="&#x2013;" horiz-adv-x="493" 
d="M40 192v150h393v-150h-393z" />
    <glyph glyph-name="emdash" unicode="&#x2014;" horiz-adv-x="554" 
d="M40 191v150h454v-150h-454z" />
    <glyph glyph-name="quoteleft" unicode="&#x2018;" horiz-adv-x="234" 
d="M20 440l81 210h113l-44 -210h-150z" />
    <glyph glyph-name="quoteright" unicode="&#x2019;" horiz-adv-x="234" 
d="M20 440l44 210h150l-81 -210h-113z" />
    <glyph glyph-name="quotesinglbase" unicode="&#x201a;" horiz-adv-x="234" 
d="M20 -114l44 210h150l-81 -210h-113z" />
    <glyph glyph-name="quotedblleft" unicode="&#x201c;" horiz-adv-x="459" 
d="M20 440l81 210h113l-44 -210h-150zM245 440l81 210h113l-44 -210h-150z" />
    <glyph glyph-name="quotedblright" unicode="&#x201d;" horiz-adv-x="459" 
d="M20 440l44 210h150l-81 -210h-113zM245 440l44 210h150l-81 -210h-113z" />
    <glyph glyph-name="quotedblbase" unicode="&#x201e;" horiz-adv-x="459" 
d="M20 -114l44 210h150l-81 -210h-113zM245 -114l44 210h150l-81 -210h-113z" />
    <glyph glyph-name="dagger" unicode="&#x2020;" horiz-adv-x="447" 
d="M139 0v347h-99v120h99v183h150v-183h98v-120h-98v-347h-150z" />
    <glyph glyph-name="daggerdbl" unicode="&#x2021;" horiz-adv-x="447" 
d="M139 0v158h-99v120h99v101h-99v120h99v151h150v-151h98v-120h-98v-101h98v-120h-98v-158h-150z" />
    <glyph glyph-name="bullet" unicode="&#x2022;" horiz-adv-x="300" 
d="M150 195q-57 0 -93.5 36.5t-36.5 93.5t36.5 93t93.5 36t93.5 -36t36.5 -93t-36.5 -93.5t-93.5 -36.5z" />
    <glyph glyph-name="ellipsis" unicode="&#x2026;" horiz-adv-x="680" 
d="M102 -8q-36 0 -59 23t-23 59t23 58.5t59 22.5t59 -22.5t23 -58.5t-23 -59t-59 -23zM340 -8q-36 0 -59 23t-23 59t23 58.5t59 22.5t59 -22.5t23 -58.5t-23 -59t-59 -23zM578 -8q-36 0 -59 23t-23 59t23 58.5t59 22.5t59 -22.5t23 -58.5t-23 -59t-59 -23z" />
    <glyph glyph-name="perthousand" unicode="&#x2030;" horiz-adv-x="1279" 
d="M40 489q0 74 46.5 121.5t118.5 47.5q71 0 117.5 -47.5t46.5 -121.5q0 -72 -46.5 -119.5t-117.5 -47.5q-72 0 -118.5 47.5t-46.5 119.5zM199 0l351 650h120l-351 -650h-120zM142 489q0 -27 17 -46t46 -19t45.5 18.5t16.5 46.5q0 29 -16.5 48t-45.5 19t-46 -19t-17 -48z
M500 158q0 74 46.5 121.5t118.5 47.5q71 0 117.5 -47.5t46.5 -121.5q0 -72 -46.5 -119.5t-117.5 -47.5q-72 0 -118.5 47.5t-46.5 119.5zM890 158q0 74 46.5 121.5t118.5 47.5q71 0 117.5 -47.5t46.5 -121.5q0 -72 -46.5 -119.5t-117.5 -47.5q-72 0 -118.5 47.5t-46.5 119.5z
M602 158q0 -27 17 -46t46 -19t45.5 18.5t16.5 46.5q0 29 -16.5 48t-45.5 19t-46 -19t-17 -48zM992 158q0 -27 17 -46t46 -19t45.5 18.5t16.5 46.5q0 29 -16.5 48t-45.5 19t-46 -19t-17 -48z" />
    <glyph glyph-name="guilsinglleft" unicode="&#x2039;" horiz-adv-x="422" 
d="M192 135l-172 186l172 186h190l-171 -186l171 -186h-190z" />
    <glyph glyph-name="guilsinglright" unicode="&#x203a;" horiz-adv-x="422" 
d="M20 135l171 186l-171 186h190l172 -186l-172 -186h-190z" />
    <glyph glyph-name="fraction" unicode="&#x2044;" horiz-adv-x="521" 
d="M20 0l401 650h80l-401 -650h-80z" />
    <glyph glyph-name="uni2070" unicode="&#x2070;" horiz-adv-x="419" 
d="M203 253q-77 0 -125 57t-48 145q0 89 48 146t125 57q78 0 127 -57t49 -146q0 -88 -49 -145t-127 -57zM203 350q29 0 51 27t22 78t-21.5 76.5t-51.5 25.5q-29 0 -51 -25.5t-22 -76.5t22 -78t51 -27z" />
    <glyph glyph-name="uni2074" unicode="&#x2074;" horiz-adv-x="386" 
d="M211 258v62h-191v62l191 268h99v-259h46v-71h-46v-62h-99zM117 391h94v134z" />
    <glyph glyph-name="uni2075" unicode="&#x2075;" horiz-adv-x="365" 
d="M164 257q-85 0 -144 57l64 72q31 -32 72 -32q64 0 64 41q0 22 -20 32t-47 10q-39 0 -66 -13l-32 48l36 182h213v-90h-136l-10 -47q83 -1 122.5 -36.5t39.5 -91.5q0 -63 -44 -97.5t-112 -34.5z" />
    <glyph glyph-name="uni2076" unicode="&#x2076;" horiz-adv-x="366" 
d="M176 252q-62 0 -104 43t-42 103q0 41 28 88l103 164h107l-67 -107q53 -9 86.5 -49.5t33.5 -95.5q0 -60 -41.5 -103t-103.5 -43zM176 346q22 0 36.5 14.5t14.5 37.5t-14.5 38.5t-36.5 15.5q-24 0 -38 -15t-14 -39q0 -23 14 -37.5t38 -14.5z" />
    <glyph glyph-name="uni2077" unicode="&#x2077;" horiz-adv-x="314" 
d="M30 258l139 301h-149v90h264v-65l-150 -326h-104z" />
    <glyph glyph-name="uni2078" unicode="&#x2078;" horiz-adv-x="371" 
d="M179 250q-72 0 -110.5 34.5t-38.5 89.5t53 88q-46 32 -46 84q0 43 36.5 77t105.5 34q68 0 104 -34t36 -77q0 -52 -45 -84q52 -32 52 -88q0 -55 -38 -89.5t-109 -34.5zM179 495q24 0 36.5 13t12.5 31t-12.5 31.5t-36.5 13.5q-25 0 -37.5 -13.5t-12.5 -31.5t13 -31t37 -13z
M179 331q24 0 38 14t14 34q0 21 -13.5 34.5t-38.5 13.5t-39 -13.5t-14 -34.5q0 -19 14 -33.5t39 -14.5z" />
    <glyph glyph-name="uni2079" unicode="&#x2079;" horiz-adv-x="366" 
d="M83 257l66 108q-52 8 -85.5 48.5t-33.5 94.5q0 61 41.5 104t103.5 43t104 -43t42 -104q0 -42 -28 -87l-103 -164h-107zM175 455q24 0 38 15t14 38q0 24 -14 38.5t-38 14.5q-22 0 -36.5 -15t-14.5 -38t14.5 -38t36.5 -15z" />
    <glyph glyph-name="Euro" unicode="&#x20ac;" horiz-adv-x="564" 
d="M425 -8q-104 0 -180 58t-106 155h-99v80h83q-2 26 -2 40q0 23 1 34h-82v80h97q30 100 106.5 159.5t181.5 59.5h21.5h36.5h21v-150h-14h-21h-14q-103 0 -147 -69h142v-80h-167q-2 -22 -2 -34q0 -22 3 -40h166v-80h-138q45 -63 143 -63q29 0 49 2v-150q-20 -2 -79 -2z" />
    <glyph glyph-name="trademark" unicode="&#x2122;" horiz-adv-x="1362" 
d="M632 650h165l170 -339l170 339h165v-650h-165v310l-113 -239h-114l-113 239v-310h-165v650zM20 650h532v-150h-183v-500h-165v500h-184v150z" />
    <glyph glyph-name="oneeighth" unicode="&#x215b;" horiz-adv-x="542" 
d="M74 322v252h-69v76h152v-328h-83zM10 0l401 650h80l-401 -650h-80zM411 -6q-59 0 -90.5 28t-31.5 73q0 47 43 72q-37 27 -37 70q0 35 29.5 62.5t86.5 27.5t86 -27.5t29 -62.5q0 -43 -36 -70q42 -26 42 -72q0 -45 -31 -73t-90 -28zM411 194q20 0 30 11t10 26t-10 26
t-30 11t-30.5 -11t-10.5 -26t10.5 -26t30.5 -11zM411 60q20 0 31.5 11.5t11.5 27.5q0 17 -11.5 28.5t-31.5 11.5t-32 -11.5t-12 -28.5q0 -15 12 -27t32 -12z" />
    <glyph glyph-name="threeeighths" unicode="&#x215c;" horiz-adv-x="632" 
d="M128 322q-38 0 -70.5 14.5t-47.5 36.5l50 56q25 -27 68 -27q51 0 51 36q0 17 -14 27.5t-37 10.5q-25 0 -57 -9l1 57l66 51h-106v75h220v-69l-58 -51q67 -22 67 -92q0 -60 -39 -88t-94 -28zM82 0l401 650h80l-401 -650h-80zM501 -6q-59 0 -90.5 28t-31.5 73q0 47 43 72
q-37 27 -37 70q0 35 29.5 62.5t86.5 27.5t86 -27.5t29 -62.5q0 -43 -36 -70q42 -26 42 -72q0 -45 -31 -73t-90 -28zM501 194q20 0 30 11t10 26t-10 26t-30 11t-30.5 -11t-10.5 -26t10.5 -26t30.5 -11zM501 60q20 0 31.5 11.5t11.5 27.5q0 17 -11.5 28.5t-31.5 11.5
t-32 -11.5t-12 -28.5q0 -15 12 -27t32 -12z" />
    <glyph glyph-name="fiveeighths" unicode="&#x215d;" horiz-adv-x="630" 
d="M131 322q-73 0 -121 48l54 60q27 -27 61 -27q53 0 53 34q0 36 -56 36q-29 0 -56 -11l-26 41l29 152h179v-76h-113l-9 -39q70 -1 103 -30.5t33 -77.5q0 -53 -37 -81.5t-94 -28.5zM82 0l401 650h80l-401 -650h-80zM499 -6q-59 0 -90.5 28t-31.5 73q0 47 43 72
q-37 27 -37 70q0 35 29.5 62.5t86.5 27.5t86 -27.5t29 -62.5q0 -43 -36 -70q42 -26 42 -72q0 -45 -31 -73t-90 -28zM499 194q20 0 30 11t10 26t-10 26t-30 11t-30.5 -11t-10.5 -26t10.5 -26t30.5 -11zM499 60q20 0 31.5 11.5t11.5 27.5q0 17 -11.5 28.5t-31.5 11.5
t-32 -11.5t-12 -28.5q0 -15 12 -27t32 -12z" />
    <glyph glyph-name="seveneighths" unicode="&#x215e;" 
d="M10 0l401 650h80l-401 -650h-80zM50 323l116 252h-125v75h221v-54l-126 -273h-86zM429 -6q-59 0 -90.5 28t-31.5 73q0 47 43 72q-37 27 -37 70q0 35 29.5 62.5t86.5 27.5t86 -27.5t29 -62.5q0 -43 -36 -70q42 -26 42 -72q0 -45 -31 -73t-90 -28zM429 194q20 0 30 11
t10 26t-10 26t-30 11t-30.5 -11t-10.5 -26t10.5 -26t30.5 -11zM429 60q20 0 31.5 11.5t11.5 27.5q0 17 -11.5 28.5t-31.5 11.5t-32 -11.5t-12 -28.5q0 -15 12 -27t32 -12z" />
    <glyph glyph-name="arrowleft" unicode="&#x2190;" horiz-adv-x="750" 
d="M330 32l-290 290l290 289l95 -95l-120 -120h385v-149h-384l119 -120z" />
    <glyph glyph-name="arrowup" unicode="&#x2191;" horiz-adv-x="680" 
d="M255 0v384l-120 -119l-95 95l290 290l290 -290l-96 -95l-119 119v-384h-150z" />
    <glyph glyph-name="arrowright" unicode="&#x2192;" horiz-adv-x="750" 
d="M400 32l-95 95l119 120h-384v149h385l-120 120l95 95l290 -289z" />
    <glyph glyph-name="arrowdown" unicode="&#x2193;" horiz-adv-x="680" 
d="M330 0l-290 290l95 95l120 -119v384h150v-384l119 119l96 -95z" />
    <glyph glyph-name="arrowboth" unicode="&#x2194;" horiz-adv-x="1010" 
d="M330 32l-290 290l290 289l95 -95l-120 -120h380l-120 120l95 95l290 -289l-290 -290l-95 95l119 120h-378l119 -120z" />
    <glyph glyph-name="arrowupdn" unicode="&#x2195;" horiz-adv-x="635" 
d="M306 -84l-264 264l95 95l94 -92v279l-95 -95l-96 95l265 266l270 -266l-95 -95l-100 96v-281l100 99l95 -95z" />
    <glyph glyph-name="uni2196" unicode="&#x2196;" horiz-adv-x="613" 
d="M447 137l-272 272v-169h-135v410h410v-135h-169l272 -272z" />
    <glyph glyph-name="uni2197" unicode="&#x2197;" horiz-adv-x="613" 
d="M146 137l-106 106l272 272h-169v135h410v-410h-135v169z" />
    <glyph glyph-name="uni2198" unicode="&#x2198;" horiz-adv-x="613" 
d="M143 0v135h169l-272 272l106 106l272 -272v169h135v-410h-410z" />
    <glyph glyph-name="uni2199" unicode="&#x2199;" horiz-adv-x="613" 
d="M40 0v410h135v-169l272 272l106 -106l-272 -272h169v-135h-410z" />
    <glyph glyph-name="partialdiff" unicode="&#x2202;" horiz-adv-x="564" 
d="M272 -18q-101 0 -166.5 65.5t-65.5 167.5q0 95 58 158.5t150 71.5q-84 130 -180 205h171q112 -87 188.5 -206t76.5 -229q0 -102 -66 -167.5t-166 -65.5zM272 132q36 0 59 23t23 60t-23 59t-59 22t-59 -22t-23 -59t23 -60t59 -23z" />
    <glyph glyph-name="emptyset" unicode="&#x2205;" 
d="M76 65l44 71q-80 66 -80 185q0 104 64 170.5t167 66.5q53 0 97 -19l24 38h73l-44 -71q79 -68 79 -185q0 -104 -63.5 -170.5t-165.5 -66.5q-52 0 -98 19l-24 -38h-73zM186 243l118 191q-15 4 -33 4q-49 0 -80 -32.5t-31 -84.5q0 -47 26 -78zM271 204q49 0 79 32.5t30 84.5
q0 47 -25 78l-117 -190q17 -5 33 -5z" />
    <glyph glyph-name="product" unicode="&#x220f;" horiz-adv-x="684" 
d="M132 0v500h-92v150h584v-150h-89v-500h-150v500h-103v-500h-150z" />
    <glyph glyph-name="summation" unicode="&#x2211;" horiz-adv-x="577" 
d="M40 -8v129l173 201l-173 205v131h477v-150h-257l157 -186l-150 -180h250v-150h-477z" />
    <glyph glyph-name="minus" unicode="&#x2212;" horiz-adv-x="520" 
d="M40 263v120h420v-120h-420z" />
    <glyph glyph-name="radical" unicode="&#x221a;" horiz-adv-x="778" 
d="M177 -48l-137 370h150l62 -169l197 539h269v-120h-163l-226 -620h-152z" />
    <glyph glyph-name="infinity" unicode="&#x221e;" horiz-adv-x="818" 
d="M199 171q-67 0 -113 45t-46 107q0 61 46 106t113 45q56 0 99.5 -16.5t103.5 -65.5q100 82 197 82q71 0 115 -44.5t44 -106.5q0 -63 -44 -107.5t-115 -44.5q-56 0 -94.5 15t-102.5 72q-63 -57 -102 -72t-101 -15zM199 276q65 0 113 48q-57 45 -113 45q-11 0 -22.5 -2.5
t-24 -13.5t-12.5 -30q0 -27 20 -37t39 -10zM599 276q12 0 23.5 2.5t23.5 14t12 30.5q0 27 -19 36.5t-40 9.5q-59 0 -105 -44q50 -49 105 -49z" />
    <glyph glyph-name="integral" unicode="&#x222b;" horiz-adv-x="568" 
d="M40 -48v120h52q75 0 85 84l37 349q7 66 40 110.5t70.5 60.5t78.5 16h105v-120h-53q-77 0 -85 -84l-38 -362q-9 -88 -63.5 -131t-124.5 -43h-104z" />
    <glyph glyph-name="approxequal" unicode="&#x2248;" horiz-adv-x="578" 
d="M356 330q-61 0 -109 44q-5 4 -11.5 10.5l-8.5 8.5t-6.5 5.5t-7 4t-6.5 1.5t-9 1q-38 0 -38 -58h-120q0 81 39 132t115 51q26 0 48.5 -8.5t31.5 -16t27 -23.5q33 -31 55 -31q42 0 42 62h120q0 -81 -40.5 -132t-121.5 -51zM356 113q-61 0 -109 44q-5 4 -11.5 10.5l-8.5 8.5
t-6.5 5.5t-7 4t-6.5 1.5t-9 1q-38 0 -38 -58h-120q0 81 39 132t115 51q26 0 48.5 -8.5t31.5 -16t27 -23.5q33 -31 55 -31q42 0 42 62h120q0 -81 -40.5 -132t-121.5 -51z" />
    <glyph glyph-name="notequal" unicode="&#x2260;" horiz-adv-x="520" 
d="M94 73l33 82h-87v120h135l37 91h-172v120h220l33 83h113l-33 -83h87v-120h-135l-37 -91h172v-120h-220l-33 -82h-113z" />
    <glyph glyph-name="lessequal" unicode="&#x2264;" horiz-adv-x="433" 
d="M373 231l-330 98v116l330 98v-110l-163 -46l163 -46v-110zM40 100v100h333v-100h-333z" />
    <glyph glyph-name="greaterequal" unicode="&#x2265;" horiz-adv-x="433" 
d="M40 231v110l163 46l-163 46v110l330 -98v-116zM40 100v100h333v-100h-333z" />
    <glyph glyph-name="lozenge" unicode="&#x25ca;" horiz-adv-x="664" 
d="M243 0l-203 322l207 328h150l207 -328l-203 -322h-158zM322 109l134 213l-134 212l-134 -212z" />
    <glyph glyph-name="A.ss01" horiz-adv-x="677" 
d="M10 0l261 650h125l261 -650h-175l-148 380l-149 -380h-175z" />
    <glyph glyph-name="I.ss01" horiz-adv-x="441" 
d="M20 0v150h108v350h-108v150h381v-150h-108v-350h108v-150h-381z" />
    <glyph glyph-name="J.ss01" horiz-adv-x="602" 
d="M278 -8q-106 0 -173.5 56t-84.5 132l161 60q8 -46 35 -67t62 -21q41 0 70 26t29 89v232h-218v151h383v-410q0 -115 -75 -181.5t-189 -66.5z" />
    <glyph glyph-name="R.ss01" horiz-adv-x="615" 
d="M575 -3q-55 0 -94 6t-79 23t-73.5 50t-62.5 85l-23 40h-38v-201h-165v650h323q82 0 142 -58t60 -166q0 -81 -35 -135t-92 -76l3 -4q38 -64 134 -64v-150zM205 361h126q28 0 48.5 16.5t20.5 48.5t-20.5 48t-48.5 16h-126v-129z" />
    <glyph glyph-name="i.loclTRK" horiz-adv-x="261" 
d="M201 460l-1 -460h-160v460h161zM72 627q21 18 48 18t48.5 -18.5t21.5 -48.5q0 -32 -21 -51q-22 -20 -49 -20t-48.5 19.5t-21.5 51.5q0 30 22 49z" />
    <glyph glyph-name="a.ss01" horiz-adv-x="527" 
d="M44 204q23 30 68 44.5t89 20t106 6.5q-2 38 -24 53.5t-45 15.5q-57 0 -76 -40l-124 55q19 44 70 77.5t131 33.5q228 0 228 -195v-275h-160v27q-40 -35 -105 -35q-101 0 -141.5 39t-40.5 95q0 47 24 78zM224 104q37 0 60 16t23 47v23q-82 -3 -107 -15.5t-25 -37.5
q0 -33 49 -33z" />
    <glyph glyph-name="n.ss01" horiz-adv-x="554" 
d="M307 460q81 0 134 -45t53 -130v-285h-160v245q0 53 -17.5 71t-69.5 18h-47v-334h-160v460h267z" />
    <glyph glyph-name="r.ss01" horiz-adv-x="341" 
d="M40 0v231q0 122 65.5 179t205.5 57v-152q-56 0 -83.5 -26.5t-27.5 -92.5v-196h-160z" />
    <glyph glyph-name="u.ss01" horiz-adv-x="554" 
d="M40 175v285h160v-245q0 -53 17.5 -71t69.5 -18h47v334h160v-460h-267q-81 0 -134 45t-53 130z" />
    </font>
</defs>
</svg>
