<?xml version="1.0" standalone="no"?>
<!DOCTYPE svg PUBLIC "-//W3C//DTD SVG 1.1//EN" "http://www.w3.org/Graphics/SVG/1.1/DTD/svg11.dtd" >
<svg xmlns="http://www.w3.org/2000/svg" xmlns:xlink="http://www.w3.org/1999/xlink" version="1.1">
<metadata>
Created by FontForge 20170731 at Tue Jul 14 08:14:37 2020
 By Aleksey,,,
Copyright (c) 2020 by Bagas Ardiatma. All rights reserved.
</metadata>
<defs>
<font id="Causten-ExtraBold" horiz-adv-x="564" >
  <font-face 
    font-family="Causten-ExtraBold"
    font-weight="400"
    font-stretch="normal"
    units-per-em="1000"
    panose-1="0 0 9 0 0 0 0 0 0 0"
    ascent="772"
    descent="-228"
    x-height="460"
    cap-height="650"
    bbox="-392 -200 1293 883"
    underline-thickness="50"
    underline-position="-150"
    unicode-range="U+0020-25CA"
  />
<missing-glyph horiz-adv-x="475" 
d="M88 -200v950h302v-950h-302zM316 -5v107h-157v-107h157zM159 -27v-31h66l-66 -45v-31h157v31h-97l67 45h30v31h-157zM316 159v107h-95v-53h33v22h31v-45h-95v76h-31v-107h157zM159 564v-99h157v32h-62v67h-95zM316 589v31h-62v35h62v31h-156v-31h61v-35h-62v-31h157z
M159 373v-31h95v66h62v31h-157v-31h62v-35h-62zM159 320v-33h157v95h-31v-62h-126zM190 71h95v-45h-95v45zM190 532h31v-35h-31v35z" />
    <glyph glyph-name="f_f" unicode="ff" horiz-adv-x="671" 
d="M71 0v353h-58v107h58v34q0 156 153 156h88v-110h-42q-56 0 -56 -55v-25h179v34q0 76 36.5 116t107.5 40h106v-110h-52q-56 0 -56 -55v-25h97v-107h-97v-353h-142v353h-179v-353h-143z" />
    <glyph glyph-name="t_t.liga" unicode="tt" horiz-adv-x="660" 
d="M213 0q-142 0 -142 140v213h-58v107h58v142h143v-142h177v142h143v-142h94v-107h-94v-189q0 -20 5 -32t16.5 -16t18 -5t21.5 -1h28v-110h-90q-142 0 -142 140v213h-177v-189q0 -20 5 -32t16 -16t17.5 -5t21.5 -1h29v-110h-90z" />
    <glyph glyph-name=".notdef" horiz-adv-x="475" 
d="M88 -200v950h302v-950h-302zM316 -5v107h-157v-107h157zM159 -27v-31h66l-66 -45v-31h157v31h-97l67 45h30v31h-157zM316 159v107h-95v-53h33v22h31v-45h-95v76h-31v-107h157zM159 564v-99h157v32h-62v67h-95zM316 589v31h-62v35h62v31h-156v-31h61v-35h-62v-31h157z
M159 373v-31h95v66h62v31h-157v-31h62v-35h-62zM159 320v-33h157v95h-31v-62h-126zM190 71h95v-45h-95v45zM190 532h31v-35h-31v35z" />
    <glyph glyph-name=".null" horiz-adv-x="0" 
 />
    <glyph glyph-name="uni000D" horiz-adv-x="333" 
 />
    <glyph glyph-name="space" unicode=" " horiz-adv-x="200" 
 />
    <glyph glyph-name="exclam" unicode="!" horiz-adv-x="234" 
d="M171 650l-10 -455h-128l-9 455h147zM44 121q21 21 54 21q32 0 53 -21t21 -53t-21 -53.5t-53 -21.5q-33 0 -54 21.5t-21 53.5t21 53z" />
    <glyph glyph-name="quotedbl" unicode="&#x22;" horiz-adv-x="393" 
d="M234 650h136l-20 -194h-102zM23 650h135l-20 -194h-101z" />
    <glyph glyph-name="numbersign" unicode="#" horiz-adv-x="727" 
d="M132 250l30 135h-101v125h128l30 137h134l-30 -137h149l30 137h134l-30 -137h79v-125h-106l-30 -135h98v-125h-125l-28 -128h-134l28 128h-149l-28 -128h-134l28 128h-82v125h109zM415 250l30 135h-149l-30 -135h149z" />
    <glyph glyph-name="dollar" unicode="$" horiz-adv-x="621" 
d="M165 237q10 -24 55.5 -54t89.5 -30q73 0 73 43q0 11 -6.5 20.5t-20.5 16t-25 11t-30.5 10t-27.5 8.5l-23 8q-24 8 -35.5 13.5t-36 17t-39 24.5t-31 31t-24.5 41.5t-8 50.5q0 71 43 114.5t115 57.5v72h137v-72q64 -13 116 -46t71 -73l-115 -76q-14 24 -56.5 48t-81.5 24
q-60 0 -60 -39q0 -12 6 -21.5t21.5 -18t23 -12.5t31.5 -12l47 -16q21 -7 30 -10.5t31 -13.5t34.5 -18.5t30 -23t27 -29.5t16.5 -36t7 -44q0 -76 -48 -123t-131 -60v-70h-137v73q-71 13 -122 48.5t-69 87.5z" />
    <glyph glyph-name="percent" unicode="%" horiz-adv-x="876" 
d="M88 611q45 46 116 46q69 0 114.5 -46.5t45.5 -118.5q0 -70 -45.5 -116.5t-114.5 -46.5q-70 0 -115.5 46.5t-45.5 116.5q0 73 45 119zM492 155q0 72 45.5 118.5t115.5 46.5t115 -46t45 -119q0 -70 -45.5 -116.5t-114.5 -46.5q-70 0 -115.5 46.5t-45.5 116.5zM549 650h109
l-351 -650h-109zM135 492q0 -30 19 -50q19 -21 50 -21t49.5 20.5t18.5 50.5q0 32 -18.5 52.5t-49.5 20.5q-32 0 -50.5 -20.5t-18.5 -52.5zM584 155q0 -30 19 -50q19 -21 50 -21t49.5 20.5t18.5 50.5q0 32 -18.5 52.5t-49.5 20.5q-32 0 -50.5 -20.5t-18.5 -52.5z" />
    <glyph glyph-name="ampersand" unicode="&#x26;" horiz-adv-x="661" 
d="M72 268q29 44 98 90q-39 46 -57.5 79.5t-18.5 75.5q0 59 47 102t128 43t128.5 -44.5t47.5 -102.5q0 -64 -34 -106.5t-87 -76.5l104 -128q28 49 28 107v8h108v-9q0 -107 -65 -191l99 -121h-135l-40 49q-71 -51 -154 -51q-107 0 -166.5 50t-59.5 129q0 53 29 97zM177 171
q0 -28 23.5 -50t70.5 -22q43 0 85 27l-117 146q-62 -49 -62 -101zM207 490q1 -6 4.5 -13.5t5 -11.5t8 -13t9 -12t11.5 -14.5t11 -14.5q77 48 77 92q0 29 -18.5 45t-45.5 16q-26 0 -44.5 -16.5t-18.5 -44.5q0 -7 1 -13z" />
    <glyph glyph-name="quotesingle" unicode="'" horiz-adv-x="181" 
d="M36 456l-13 194h135l-21 -194h-101z" />
    <glyph glyph-name="parenleft" unicode="(" horiz-adv-x="297" 
d="M22 322q0 234 89 370h143q-61 -83 -77.5 -190t-16.5 -179t17 -180.5t78 -190.5h-144q-89 135 -89 370z" />
    <glyph glyph-name="parenright" unicode=")" horiz-adv-x="307" 
d="M33 -48q61 82 78 190.5t17 180.5t-16.5 179t-77.5 190h143q58 -89 73.5 -194.5t16.5 -176.5q-1 -70 -16.5 -175.5t-73.5 -193.5h-144z" />
    <glyph glyph-name="asterisk" unicode="*" horiz-adv-x="382" 
d="M25 434l97 56l-94 60l40 62l85 -54v92h77v-97l89 52l38 -62l-95 -55l94 -60l-40 -61l-86 55v-94h-77v97l-90 -52z" />
    <glyph glyph-name="plus" unicode="+" horiz-adv-x="517" 
d="M191 379v148h116v-148h148v-116h-148v-148h-116v148h-148v116h148z" />
    <glyph glyph-name="comma" unicode="," horiz-adv-x="222" 
d="M23 -108l41 197h136l-76 -197h-101z" />
    <glyph glyph-name="hyphen" unicode="-" horiz-adv-x="405" 
d="M43 204v134h299v-134h-299z" />
    <glyph glyph-name="period" unicode="." horiz-adv-x="194" 
d="M44 121q20 20 53 20q32 0 53 -20.5t21 -53.5q0 -32 -21 -53t-53 -21q-33 0 -53.5 21t-20.5 53q0 33 21 54z" />
    <glyph glyph-name="slash" unicode="/" horiz-adv-x="391" 
d="M23 -47l212 739h138l-212 -739h-138z" />
    <glyph glyph-name="zero" unicode="0" horiz-adv-x="641" 
d="M111 565q77 93 203 93t205.5 -93.5t79.5 -239.5t-79 -239q-80 -94 -206 -94t-203.5 93.5t-77.5 239.5t78 240zM180 325q0 -91 39 -140.5t95 -49.5q55 0 94 49.5t39 140.5q0 90 -39 138t-94 48q-56 0 -95 -47.5t-39 -138.5z" />
    <glyph glyph-name="one" unicode="1" horiz-adv-x="359" 
d="M150 0v516h-139v134h286v-650h-147z" />
    <glyph glyph-name="two" unicode="2" horiz-adv-x="522" 
d="M99 611q61 49 157 49q108 0 170 -54.5t62 -145.5q0 -42 -18 -85t-53 -84t-56.5 -62t-58.5 -54l-46 -41h233v-134h-459l-1 120l97 85q49 42 72 63t62.5 60.5t57.5 69.5t18 54q0 30 -20 49t-60 19q-38 0 -65.5 -23.5t-36.5 -51.5l-131 62q15 54 76 104z" />
    <glyph glyph-name="three" unicode="3" 
d="M113 192q20 -22 58.5 -39.5t83.5 -17.5q51 0 82.5 23t31.5 63q0 41 -31.5 65.5t-82.5 24.5q-49 0 -115 -19l2 105l152 119h-226v134h431v-124l-131 -114q148 -44 148 -191q0 -115 -77 -172t-184 -57q-73 0 -137.5 28.5t-94.5 72.5z" />
    <glyph glyph-name="four" unicode="4" horiz-adv-x="600" 
d="M23 203l321 447h146v-434h77v-106h-77v-110h-146v110h-321v93zM344 216v248l-178 -248h178z" />
    <glyph glyph-name="five" unicode="5" horiz-adv-x="558" 
d="M118 191q54 -56 128 -56q48 0 82.5 20t34.5 63q0 42 -36.5 63.5t-86.5 21.5q-64 0 -113 -23l-46 70l54 300h348v-134h-233l-19 -94h13q135 0 200.5 -59.5t65.5 -153.5q0 -103 -71.5 -160t-182.5 -57q-142 0 -233 95z" />
    <glyph glyph-name="six" unicode="6" horiz-adv-x="555" 
d="M75 371l178 279h158l-114 -180q92 -10 151 -77.5t59 -160.5q0 -100 -67.5 -170t-169.5 -70q-101 0 -169 70t-68 170q0 78 42 139zM171 232q0 -45 27.5 -73.5t71.5 -28.5q43 0 71 29t28 73t-28 73.5t-71 29.5q-44 0 -71.5 -29.5t-27.5 -73.5z" />
    <glyph glyph-name="seven" unicode="7" horiz-adv-x="484" 
d="M197 -1l-154 1l238 516h-260v134h431v-97z" />
    <glyph glyph-name="eight" unicode="8" horiz-adv-x="563" 
d="M56 273q23 39 67 65q-79 54 -79 142q0 71 59.5 126t171.5 55t170 -55t58 -126q0 -88 -77 -142q43 -25 66 -64t23 -84q0 -89 -62 -145t-178 -56q-117 0 -179.5 56t-62.5 145q0 44 23 83zM174 198q0 -36 27 -62q27 -27 74 -27t73 25.5t26 63.5t-26 63.5t-73 25.5
q-48 0 -74.5 -25.5t-26.5 -63.5zM179 470q0 -34 24.5 -58t71.5 -24q46 0 70 24t24 58t-24 58.5t-70 24.5t-71 -24.5t-25 -58.5z" />
    <glyph glyph-name="nine" unicode="9" horiz-adv-x="555" 
d="M101 588q67 70 168 70q102 0 170 -70t68 -170q0 -78 -42 -139l-178 -280h-158l112 181q-91 10 -149.5 77.5t-58.5 160.5q0 100 68 170zM171 418q0 -44 27.5 -73t70.5 -29q44 0 72 29t28 73q0 45 -27.5 73.5t-72.5 28.5q-43 0 -70.5 -29t-27.5 -73z" />
    <glyph glyph-name="colon" unicode=":" horiz-adv-x="211" 
d="M44 121q20 20 53 20q32 0 53 -20.5t21 -53.5q0 -32 -21 -53t-53 -21q-33 0 -53.5 21t-20.5 53q0 33 21 54zM44 423q20 20 53 20q32 0 53 -20.5t21 -52.5t-21 -53t-53 -21q-33 0 -53.5 21t-20.5 53t21 53z" />
    <glyph glyph-name="semicolon" unicode=";" horiz-adv-x="240" 
d="M65 89h135l-76 -197h-101zM50 369q0 31 22 52.5t52 21.5q31 0 53 -21.5t22 -52.5t-22 -52.5t-53 -21.5q-30 0 -52 21.5t-22 52.5z" />
    <glyph glyph-name="less" unicode="&#x3c;" horiz-adv-x="435" 
d="M43 377l330 122v-108l-188 -69l188 -70v-108l-330 122v111z" />
    <glyph glyph-name="equal" unicode="=" horiz-adv-x="518" 
d="M43 374v108h413v-108h-413zM456 270v-108h-413v108h413z" />
    <glyph glyph-name="greater" unicode="&#x3e;" horiz-adv-x="435" 
d="M373 377v-111l-330 -122v108l188 70l-188 69v108z" />
    <glyph glyph-name="question" unicode="?" horiz-adv-x="509" 
d="M11 516q24 61 82.5 103t143.5 42q98 0 158.5 -46.5t60.5 -132.5q0 -36 -12.5 -68t-24 -46.5t-33.5 -37.5q-32 -35 -42.5 -47.5t-22 -33t-11.5 -38.5v-16h-148v16q0 80 68 146l16 16q13 13 16.5 17t13 14.5t12.5 16t8 15t6.5 17.5t1.5 17q0 24 -17 40.5t-50 16.5
t-61.5 -22t-38.5 -50zM184 120q21 21 53 21q33 0 54.5 -21t21.5 -54q0 -32 -21.5 -53t-54.5 -21q-32 0 -53 21t-21 53q0 33 21 54z" />
    <glyph glyph-name="at" unicode="@" horiz-adv-x="796" 
d="M143 577q100 101 246 101q145 0 245 -98t100 -242q0 -55 -12 -100t-46.5 -78t-88.5 -33q-45 0 -79.5 20.5t-50.5 60.5q-30 -51 -95 -51q-51 0 -94.5 42.5t-43.5 119.5t43.5 119t94.5 42q52 0 84 -35v30h91v-193q0 -80 50 -80q56 0 56 136q0 85 -39 143.5t-94.5 82.5
t-120.5 24q-100 0 -178 -71.5t-78 -194.5q0 -121 78 -193t178 -72q70 0 120 26l46 -83q-66 -33 -166 -33q-148 0 -247 102.5t-99 252.5q0 154 100 255zM333 269q18 -21 48 -21t47.5 20.5t17.5 50.5q0 31 -17.5 51t-47.5 20t-48.5 -20t-18.5 -51q0 -30 19 -50z" />
    <glyph glyph-name="A" unicode="A" horiz-adv-x="671" 
d="M13 0l262 650h111l263 -650h-156l-35 90h-254l-35 -90h-156zM406 224l-76 192l-74 -192h150z" />
    <glyph glyph-name="B" unicode="B" horiz-adv-x="604" 
d="M43 0v650h304q80 0 136 -50t56 -137q0 -85 -57 -126q81 -47 81 -146q0 -87 -60 -139t-140 -52h-320zM190 273v-139h150q32 0 51.5 20t19.5 50q0 29 -19.5 49t-51.5 20h-150zM322 394q30 0 47.5 16.5t17.5 44.5q0 29 -17.5 45t-47.5 16h-132v-122h132z" />
    <glyph glyph-name="C" unicode="C" horiz-adv-x="662" 
d="M125 564q92 94 236 94q172 0 263 -131l-118 -88q-22 30 -60.5 51t-84.5 21q-80 0 -130.5 -52t-50.5 -134t50.5 -134t130.5 -52q45 0 83.5 22.5t61.5 53.5l118 -92q-91 -131 -263 -131q-144 0 -236 94t-92 239t92 239z" />
    <glyph glyph-name="D" unicode="D" horiz-adv-x="657" 
d="M43 0v650h247q142 0 230.5 -90t88.5 -235t-88.5 -235t-230.5 -90h-247zM190 143h100q22 0 47 7t55.5 24t50 56t19.5 95q0 45 -14 79.5t-33.5 53t-45 30.5t-44.5 15.5t-35 3.5h-100v-364z" />
    <glyph glyph-name="E" unicode="E" horiz-adv-x="547" 
d="M489 650v-134h-299v-124h278v-134h-278v-124h299v-134h-446v650h446z" />
    <glyph glyph-name="F" unicode="F" horiz-adv-x="550" 
d="M493 650v-138h-303v-139h284v-139h-284v-234h-147v650h450z" />
    <glyph glyph-name="G" unicode="G" horiz-adv-x="725" 
d="M125 564q92 94 236 94q85 0 152.5 -34.5t110.5 -95.5l-119 -88q-52 71 -144 71q-80 0 -130.5 -52t-50.5 -134t50.5 -134t130.5 -52q50 0 91 26.5t52 76.5h-152v134h321v-66q-5 -141 -89 -229.5t-223 -88.5q-144 0 -236 94t-92 239t92 239z" />
    <glyph glyph-name="H" unicode="H" horiz-adv-x="651" 
d="M190 650v-254h252v254h147v-650h-147v254h-252v-254h-147v650h147z" />
    <glyph glyph-name="I" unicode="I" horiz-adv-x="252" 
d="M43 0v650h147v-650h-147z" />
    <glyph glyph-name="J" unicode="J" horiz-adv-x="529" 
d="M166 214q12 -79 77 -79q36 0 56 22.5t20 61.5v431h148v-452q0 -96 -61.5 -151t-162.5 -55q-95 0 -151.5 47t-68.5 125z" />
    <glyph glyph-name="K" unicode="K" horiz-adv-x="579" 
d="M190 650v-256l187 256h166l-231 -325l244 -325h-170l-196 259v-259h-147v650h147z" />
    <glyph glyph-name="L" unicode="L" horiz-adv-x="530" 
d="M43 0v650h147v-516h297v-134h-444z" />
    <glyph glyph-name="M" unicode="M" horiz-adv-x="765" 
d="M191 650l181 -362l182 362h148v-650h-147v350l-132 -277h-101l-132 277v-350h-147v650h148z" />
    <glyph glyph-name="N" unicode="N" horiz-adv-x="643" 
d="M185 650l248 -390v390h147v-650h-143l-247 389v-389h-147v650h142z" />
    <glyph glyph-name="O" unicode="O" horiz-adv-x="735" 
d="M33 325q0 145 92 239t236 94t235 -94t91 -239t-91 -239t-235 -94t-236 94t-92 239zM180 325q0 -82 51 -134q50 -52 130 -52t129.5 52t49.5 134t-49.5 134t-129.5 52t-130.5 -52t-50.5 -134z" />
    <glyph glyph-name="P" unicode="P" horiz-adv-x="593" 
d="M43 0v650h305q80 0 141 -58t61 -161t-61 -161t-141 -58h-158v-212h-147zM190 354h132q33 0 57 20.5t24 56.5t-23 56t-56 20h-134v-153z" />
    <glyph glyph-name="Q" unicode="Q" horiz-adv-x="735" 
d="M33 325q0 145 93 239t235 94q145 0 235.5 -93.5t90.5 -239.5q0 -86 -33.5 -156.5t-94.5 -115.5l100 -135h-176l-59 79q-33 -5 -63 -5q-144 0 -236 94t-92 239zM180 325q0 -82 51 -134q50 -52 130 -52t129.5 52t49.5 134t-49.5 134t-129.5 52t-130.5 -52t-50.5 -134z" />
    <glyph glyph-name="R" unicode="R" horiz-adv-x="617" 
d="M43 0v650h315q79 0 140.5 -58t61.5 -161q0 -76 -35 -128t-90 -75l139 -228h-170l-129 212h-85v-212h-147zM333 354q33 0 56.5 20.5t23.5 56.5t-23.5 56t-56.5 20h-143v-153h143z" />
    <glyph glyph-name="S" unicode="S" horiz-adv-x="612" 
d="M141 234q16 -30 70 -64.5t113 -34.5q81 0 81 54q0 12 -9.5 22.5t-27 18.5t-33.5 13.5t-38 12t-32 10.5q-2 1 -31.5 10.5t-46 16t-46.5 23.5t-47 35t-30.5 47.5t-13.5 64.5q0 101 74.5 150t182.5 49q90 0 163.5 -44t94.5 -99l-116 -77q-15 25 -61 49t-99 24q-70 0 -70 -45
q0 -13 9 -23.5t26 -19t31.5 -13.5t37.5 -12t32 -10q1 -1 25.5 -9t38 -14t39.5 -18t42.5 -26t34 -33t26.5 -43.5t9 -52.5q0 -100 -71.5 -154t-191.5 -54q-107 0 -182.5 48t-101.5 113z" />
    <glyph glyph-name="T" unicode="T" horiz-adv-x="591" 
d="M23 650h525v-134h-189v-516h-147v516h-189v134z" />
    <glyph glyph-name="U" unicode="U" horiz-adv-x="614" 
d="M190 650v-403q0 -59 30.5 -85.5t76.5 -26.5t76.5 26.5t30.5 85.5v403h148v-419q0 -100 -68 -169q-68 -70 -187 -70t-186.5 69.5t-67.5 169.5v419h147z" />
    <glyph glyph-name="V" unicode="V" horiz-adv-x="659" 
d="M13 650h156l155 -405l156 405h156l-253 -650h-117z" />
    <glyph glyph-name="W" unicode="W" horiz-adv-x="952" 
d="M13 650h156l126 -383l126 383h108l123 -364l121 364h156l-217 -650h-126l-115 346l-115 -346h-126z" />
    <glyph glyph-name="X" unicode="X" horiz-adv-x="646" 
d="M13 0l215 325l-215 325h169l131 -197l130 197h170l-215 -325l215 -325h-170l-130 197l-131 -197h-169z" />
    <glyph glyph-name="Y" unicode="Y" horiz-adv-x="637" 
d="M176 650l135 -224l135 224h168l-229 -376v-274h-147v271l-231 379h169z" />
    <glyph glyph-name="Z" unicode="Z" horiz-adv-x="543" 
d="M33 0v123l282 392h-276v135l462 1v-124l-287 -392l281 -1v-134h-462z" />
    <glyph glyph-name="bracketleft" unicode="[" horiz-adv-x="325" 
d="M263 692v-103h-86v-534h86v-103h-220v740h220z" />
    <glyph glyph-name="backslash" unicode="\" horiz-adv-x="388" 
d="M230 -48l-212 739h138l212 -739h-138z" />
    <glyph glyph-name="bracketright" unicode="]" horiz-adv-x="325" 
d="M263 692v-740h-220v103h86v534h-86v103h220z" />
    <glyph glyph-name="asciicircum" unicode="^" horiz-adv-x="449" 
d="M154 650h118l115 -315h-108l-66 180l-63 -180h-107z" />
    <glyph glyph-name="underscore" unicode="_" horiz-adv-x="455" 
d="M43 0v134h349v-134h-349z" />
    <glyph glyph-name="grave" unicode="`" horiz-adv-x="217" 
d="M80 532l-60 118h121l56 -118h-117z" />
    <glyph glyph-name="a" unicode="a" 
d="M85 401q61 66 155 66q72 0 119 -45v38h142v-460h-142v38q-46 -46 -119 -46q-93 0 -154.5 67.5t-61.5 170.5q0 104 61 171zM162 230q0 -46 28 -75q27 -29 71 -29t71 29t27 75t-27 74.5t-71 28.5q-45 0 -72 -29t-27 -74z" />
    <glyph glyph-name="b" unicode="b" 
d="M43 650h142v-228q47 45 119 45q94 0 155 -66.5t61 -170.5q0 -103 -61.5 -170.5t-154.5 -67.5q-73 0 -119 46v-38h-142v650zM212 155q27 -29 71 -29t71.5 29t27.5 75q0 45 -27 74t-72 29q-44 0 -71 -28.5t-27 -74.5t27 -75z" />
    <glyph glyph-name="c" unicode="c" horiz-adv-x="481" 
d="M90 402q65 66 170 66q122 0 187 -93l-102 -79q-29 37 -81 37q-45 0 -73 -29t-28 -74t28 -74.5t73 -29.5q52 0 81 36l102 -77q-65 -94 -187 -94q-105 0 -170.5 67t-65.5 172t66 172z" />
    <glyph glyph-name="d" unicode="d" 
d="M85 401q61 66 155 66q72 0 119 -45v228h142v-650h-142v38q-46 -46 -119 -46q-93 0 -154.5 67.5t-61.5 170.5q0 104 61 171zM162 230q0 -46 28 -75q27 -29 71 -29t71 29t27 75t-27 74.5t-71 28.5q-45 0 -72 -29t-27 -74z" />
    <glyph glyph-name="e" unicode="e" horiz-adv-x="519" 
d="M87 402q63 67 167 67q102 0 162 -67t60 -172v-38h-314q9 -38 35 -59.5t62 -21.5q65 0 97 43l97 -72q-31 -43 -81.5 -67.5t-112.5 -24.5q-105 0 -170 68t-65 172t63 172zM164 281h178q-21 76 -88 76q-69 0 -90 -76z" />
    <glyph glyph-name="f" unicode="f" horiz-adv-x="354" 
d="M71 460v34q0 156 153 156h98v-110h-52q-56 0 -56 -55v-25h97v-107h-97v-353h-143v353h-58v107h58z" />
    <glyph glyph-name="g" unicode="g" 
d="M24 230q0 103 61 170t154 67q74 0 120 -46v39h142v-428q0 -103 -64.5 -166.5t-182.5 -63.5q-126 0 -197 84l93 78q41 -42 104 -42q14 0 29 4t33.5 15t30.5 34.5t12 56.5v7q-47 -47 -120 -47q-93 0 -154 67.5t-61 170.5zM162 230q0 -46 27 -75t71 -29t71.5 29t27.5 75
q0 45 -27 74t-72 29q-44 0 -71 -28.5t-27 -74.5z" />
    <glyph glyph-name="h" unicode="h" horiz-adv-x="548" 
d="M43 650h142v-228q46 45 122 45q72 0 125.5 -44t53.5 -142v-281h-143v258q0 51 -25.5 70t-54.5 19q-17 0 -32 -5t-30.5 -26.5t-15.5 -57.5v-258h-142v650z" />
    <glyph glyph-name="i" unicode="i" horiz-adv-x="259" 
d="M192 460l-1 -460h-143v460h144zM66 650q23 20 53 20q31 0 54 -20t23 -54q0 -35 -23 -56q-24 -22 -54 -22t-53 21.5t-23 56.5q0 34 23 54z" />
    <glyph glyph-name="j" unicode="j" horiz-adv-x="268" 
d="M-1 -74q21 0 30.5 1.5t19.5 14.5t10 40v478h143v-509q0 -60 -36.5 -97.5t-114.5 -37.5h-72v110h20zM52 596q0 34 23.5 54t53.5 20t53.5 -20t23.5 -54q0 -35 -23 -56q-23 -22 -53 -22t-54 21.5t-24 56.5z" />
    <glyph glyph-name="k" unicode="k" horiz-adv-x="524" 
d="M185 650v-357l130 167h165l-170 -218l191 -242h-165l-151 191v-191h-142v650h142z" />
    <glyph glyph-name="l" unicode="l" horiz-adv-x="248" 
d="M43 0v650h143l-1 -650h-142z" />
    <glyph glyph-name="m" unicode="m" horiz-adv-x="824" 
d="M43 0v460h142v-42q48 49 117 49q94 0 140 -66q51 66 148 66q70 0 120.5 -43.5t50.5 -142.5v-281h-142v261q0 26 -8.5 44t-22 25.5t-23.5 10t-20 2.5q-14 0 -28 -4t-29 -24t-15 -54v-261h-142v261q0 26 -8.5 44t-22 25.5t-23.5 10t-20 2.5q-14 0 -28 -4t-29 -24t-15 -54
v-261h-142z" />
    <glyph glyph-name="n" unicode="n" horiz-adv-x="548" 
d="M43 460h142v-38q46 45 122 45q72 0 125.5 -44t53.5 -142v-281h-143v258q0 51 -25.5 70t-54.5 19q-17 0 -32 -5t-30.5 -26.5t-15.5 -57.5v-258h-142v460z" />
    <glyph glyph-name="o" unicode="o" horiz-adv-x="544" 
d="M24 230q0 105 67 172.5t172 67.5q104 0 171 -67.5t67 -172.5q0 -103 -67 -171q-67 -69 -171 -69t-171.5 68.5t-67.5 171.5zM164 230q0 -45 28 -74q27 -30 71 -30t70.5 29.5t26.5 74.5t-26.5 74t-70.5 29t-71.5 -29t-27.5 -74z" />
    <glyph glyph-name="p" unicode="p" 
d="M43 460h142v-39q46 46 119 46q93 0 154.5 -67.5t61.5 -170.5q0 -104 -61 -170.5t-155 -66.5q-73 0 -119 46v-222h-142v644zM212 155q27 -29 71 -29q45 0 72 29t27 74q0 46 -27.5 75t-71.5 29t-71 -29t-27 -75t27 -74z" />
    <glyph glyph-name="q" unicode="q" 
d="M24 229q0 103 61.5 170.5t154.5 67.5q73 0 119 -46v39h142v-644h-142v222q-46 -46 -119 -46q-94 0 -155 66.5t-61 170.5zM162 229q0 -45 27 -74t72 -29q44 0 71 28.5t27 74.5t-27 75t-71 29t-71.5 -29t-27.5 -75z" />
    <glyph glyph-name="r" unicode="r" horiz-adv-x="380" 
d="M185 460v-83q55 88 162 90v-134q-162 0 -162 -135v-198h-142v460h142z" />
    <glyph glyph-name="s" unicode="s" horiz-adv-x="451" 
d="M111 164q7 -19 43 -42.5t72 -23.5q53 0 53 32q0 8 -5 15t-15.5 12t-19.5 8.5t-23.5 8t-21.5 6.5q-1 1 -15.5 5.5t-23 8t-25.5 11t-28 15t-24.5 19t-21.5 24t-14 29t-6 35.5q0 71 54 107.5t134 36.5q72 0 123 -29t72 -70l-92 -61q-12 17 -44.5 34t-63.5 17q-45 0 -45 -28
q0 -9 5 -16t15.5 -12.5t19 -9t23.5 -8t21 -6.5q1 0 12.5 -4t17 -6t19.5 -8t22 -10.5t21 -12t21 -15t18 -18t15 -21t9 -24t4 -28.5q0 -72 -51 -110.5t-141 -38.5q-81 0 -136.5 33t-74.5 79z" />
    <glyph glyph-name="t" unicode="t" horiz-adv-x="349" 
d="M13 353v107h58v142h143v-142h94v-107h-94v-189q0 -20 5 -32t16 -16t17.5 -5t21.5 -1h29v-110h-89q-143 0 -143 140v213h-58z" />
    <glyph glyph-name="u" unicode="u" horiz-adv-x="548" 
d="M43 179v281h142v-259q0 -51 26 -70t54 -19q17 0 32 5t30.5 26.5t15.5 57.5v259h143v-460h-143v37q-46 -45 -122 -45q-32 0 -61.5 9.5t-57 29.5t-43.5 58t-16 90z" />
    <glyph glyph-name="v" unicode="v" horiz-adv-x="530" 
d="M6 460h147l103 -267l105 267h147l-183 -460h-138z" />
    <glyph glyph-name="w" unicode="w" horiz-adv-x="771" 
d="M10 460h147l78 -259l91 259h107l91 -259l78 259h147l-149 -460h-138l-84 246l-84 -246h-138z" />
    <glyph glyph-name="x" unicode="x" horiz-adv-x="533" 
d="M13 0l162 230l-162 230h164l80 -114l80 114h164l-162 -230l162 -230h-164l-80 114l-80 -114h-164z" />
    <glyph glyph-name="y" unicode="y" horiz-adv-x="530" 
d="M153 460l103 -263l105 263h147l-256 -644h-138l73 185l-181 459h147z" />
    <glyph glyph-name="z" unicode="z" horiz-adv-x="422" 
d="M379 460v-106l-177 -238h177v-116h-356v106l177 238h-177v116h356z" />
    <glyph glyph-name="braceleft" unicode="{" horiz-adv-x="376" 
d="M43 277v90h15q15 0 25.5 12.5t10.5 37.5v153q0 66 26 94t78 28h116v-103h-49q-33 0 -33 -43v-129q0 -71 -58 -95q58 -24 58 -95v-129q0 -43 33 -43h49v-103h-116q-104 0 -104 122v153q0 25 -10.5 37.5t-25.5 12.5h-15z" />
    <glyph glyph-name="bar" unicode="|" horiz-adv-x="239" 
d="M43 -48v740h134v-740h-134z" />
    <glyph glyph-name="braceright" unicode="}" horiz-adv-x="376" 
d="M43 55h49q33 0 33 43v129q0 71 57 95q-57 24 -57 95v129q0 43 -33 43h-49v103h116q52 0 78 -28t26 -94v-153q0 -25 10.5 -37.5t25.5 -12.5h15v-90h-15q-15 0 -25.5 -12.5t-10.5 -37.5v-153q0 -122 -104 -122h-116v103z" />
    <glyph glyph-name="asciitilde" unicode="~" horiz-adv-x="582" 
d="M43 242q0 77 38 126t112 49q26 0 49 -9t32 -16.5t27 -23.5q37 -34 61 -34q49 0 49 67h108q0 -78 -39.5 -127t-117.5 -49q-60 0 -110 46q-3 3 -9.5 9t-9 8t-7 6t-7 5.5t-6.5 3t-8 2t-9 0.5q-24 0 -35 -19.5t-11 -43.5h-107z" />
    <glyph glyph-name="exclamdown" unicode="&#xa1;" horiz-adv-x="224" 
d="M31 443h128l9 -443h-147zM42 636q22 21 53 21t52.5 -21.5t21.5 -52.5t-21 -53q-22 -22 -53 -22t-53 22t-22 53t22 53z" />
    <glyph glyph-name="cent" unicode="&#xa2;" horiz-adv-x="643" 
d="M99 518q55 80 155 105v74h134v-67q118 -18 193 -128l-122 -79q-49 67 -121 67q-63 0 -108 -39t-45 -121t45 -121.5t108 -39.5q77 0 121 62l122 -74q-75 -110 -193 -128v-77h-134v84q-100 25 -155.5 106t-55.5 188t56 188z" />
    <glyph glyph-name="sterling" unicode="&#xa3;" horiz-adv-x="528" 
d="M43 108q133 0 133 109q0 30 -10 69h-119v73h94q-29 73 -29 129q0 74 55.5 126.5t181.5 52.5q51 0 112 -10v-103q-46 10 -80 10q-15 0 -42.5 -4.5t-50.5 -19.5t-26 -36t-3 -34q0 -18 5 -44t22 -67h149v-73h-125q5 -27 5 -51q0 -78 -53 -127h203v-108h-422v108z" />
    <glyph glyph-name="currency" unicode="&#xa4;" horiz-adv-x="585" 
d="M121 234q-20 40 -20 89t20 91l-75 75l73 71l73 -73q40 24 93 24q49 0 91 -22l71 71l74 -68l-74 -76q21 -44 21 -93q0 -52 -21 -91l76 -76l-73 -71l-73 73q-41 -24 -92 -24q-53 0 -95 25l-71 -71l-76 68zM231 264q22 -22 54 -22t53.5 22t21.5 59t-21.5 58.5t-53.5 21.5
q-33 0 -54.5 -21.5t-21.5 -58.5t22 -59z" />
    <glyph glyph-name="yen" unicode="&#xa5;" horiz-adv-x="637" 
d="M7 650h169l135 -224l135 224h168l-207 -340h105v-73h-127v-66h127v-73h-127v-98h-147v98h-128v73h128v66h-128v73h104z" />
    <glyph glyph-name="brokenbar" unicode="&#xa6;" horiz-adv-x="239" 
d="M43 379v313h134v-313h-134zM177 264v-312h-134v312h134z" />
    <glyph glyph-name="section" unicode="&#xa7;" horiz-adv-x="467" 
d="M152 130q6 -29 33 -41t52 -12q58 0 58 40q0 34 -69 59q-28 10 -47.5 19t-48.5 27t-45 44t-16 57q0 75 58 109q-55 35 -55 102q0 62 46 101t117 39q65 0 105.5 -28.5t54.5 -71.5l-98 -44q-11 36 -62 36q-27 0 -41 -9.5t-14 -22.5q0 -26 57 -47q5 -2 24.5 -8t31 -11
t31 -13.5t31 -19t24.5 -24.5t19 -33.5t6 -41.5q0 -81 -61 -114q59 -37 59 -105q0 -78 -51 -113t-118 -35q-147 0 -190 124zM194 297q17 -13 42 -13q29 0 45 13.5t16 38.5q0 21 -17 34.5t-46 13.5q-58 0 -58 -54q0 -20 18 -33z" />
    <glyph glyph-name="dieresis" unicode="&#xa8;" horiz-adv-x="359" 
d="M20 634q0 28 19.5 44.5t44.5 16.5t44.5 -16.5t19.5 -44.5q0 -29 -20 -47t-44 -18t-44 18t-20 47zM212 634q0 28 19.5 44.5t44.5 16.5q24 0 43.5 -16.5t19.5 -44.5q0 -29 -19.5 -47t-43.5 -18q-25 0 -44.5 18t-19.5 47z" />
    <glyph glyph-name="copyright" unicode="&#xa9;" horiz-adv-x="762" 
d="M135 564q92 94 236 94t236 -94t92 -239q0 -147 -91.5 -240t-236.5 -93q-147 0 -237.5 93.5t-90.5 239.5q0 145 92 239zM116 325q0 -47 15.5 -91.5t45 -83t80 -62t114.5 -23.5q65 0 115.5 23.5t80 62t44 83t14.5 91.5t-14.5 91.5t-44 83t-80 62t-115.5 23.5t-116 -23.5
t-80 -62t-44 -83t-15 -91.5zM208 326q0 77 48 127t124 50q92 0 140 -69l-62 -46q-28 41 -78 41q-19 0 -39 -7t-39.5 -32t-19.5 -64q0 -56 32.5 -80t65.5 -24q49 0 78 39l62 -43q-48 -70 -140 -70q-76 0 -124 50.5t-48 127.5z" />
    <glyph glyph-name="guillemotleft" unicode="&#xab;" horiz-adv-x="727" 
d="M500 507h170l-171 -186l171 -186h-170l-172 186zM38 321l172 186h169l-171 -186l171 -186h-169z" />
    <glyph glyph-name="logicalnot" unicode="&#xac;" horiz-adv-x="553" 
d="M357 183v125h-314v134h448v-259h-134z" />
    <glyph glyph-name="registered" unicode="&#xae;" horiz-adv-x="760" 
d="M135 563q92 95 236 95q143 0 234.5 -95t91.5 -238t-91.5 -238t-234.5 -95q-144 0 -236 95t-92 238t92 238zM131 236q15 -45 44.5 -84t80.5 -63t115 -24t114.5 24t79.5 63t44 83t15 90t-15 90t-44 83t-79.5 63t-114.5 24t-115 -24t-80.5 -63t-44.5 -83.5t-15 -89.5t15 -89
zM236 154v336h165q40 0 72 -30t32 -83q0 -39 -18 -66.5t-46 -39.5l72 -117h-88l-66 108h-46v-108h-77zM313 417v-80h75q16 0 28 11t12 29t-12 29t-28 11h-75z" />
    <glyph glyph-name="macron" unicode="&#xaf;" horiz-adv-x="244" 
d="M20 560v90h204v-90h-204z" />
    <glyph glyph-name="degree" unicode="&#xb0;" horiz-adv-x="317" 
d="M69 625q35 34 90 34q54 0 89 -34.5t35 -88.5q0 -53 -35.5 -87.5t-88.5 -34.5q-55 0 -90 34.5t-35 87.5q0 54 35 89zM122 501q15 -14 37 -14q21 0 36 14t15 35t-15 35.5t-36 14.5t-37 -14.5t-16 -35.5t16 -35z" />
    <glyph glyph-name="plusminus" unicode="&#xb1;" horiz-adv-x="464" 
d="M169 432v80h107v-80h126v-91h-126v-81h-107v81h-126v91h126zM43 211h359v-90h-359v90z" />
    <glyph glyph-name="twosuperior" unicode="&#xb2;" horiz-adv-x="337" 
d="M70 631q36 29 93 29q65 0 102.5 -32.5t37.5 -87.5q0 -74 -112 -172l-28 -25h141v-81h-277l-1 72l59 52q37 32 58.5 51.5t45 49t23.5 48.5q0 18 -12.5 29.5t-36.5 11.5q-23 0 -39.5 -14t-21.5 -31l-79 37q10 33 47 63z" />
    <glyph glyph-name="threesuperior" unicode="&#xb3;" horiz-adv-x="368" 
d="M77 374q31 -35 86 -35q31 0 50 14t19 38q0 25 -19.5 40t-49.5 15t-70 -12l2 63l91 72h-136v81h260v-75l-79 -69q89 -25 89 -115q0 -70 -46.5 -104t-110.5 -34q-44 0 -83 17t-57 44z" />
    <glyph glyph-name="acute" unicode="&#xb4;" horiz-adv-x="217" 
d="M20 532l56 118h121l-60 -118h-117z" />
    <glyph glyph-name="paragraph" unicode="&#xb6;" horiz-adv-x="622" 
d="M85 602q45 48 117 48h137v-650h-134v312q-77 0 -121 43t-44 119q0 79 45 128zM425 650h134v-650h-134v650z" />
    <glyph glyph-name="periodcentered" unicode="&#xb7;" horiz-adv-x="195" 
d="M44 380q21 20 53 20q33 0 54 -20.5t21 -53.5t-21 -54t-54 -21q-32 0 -53 21t-21 54t21 54z" />
    <glyph glyph-name="cedilla" unicode="&#xb8;" horiz-adv-x="211" 
d="M85 -134q38 0 38 19q0 18 -42 18q-30 0 -42 -7l-1 53l31 51h76l-26 -44q71 -13 71 -71q0 -82 -105 -82q-45 0 -64 10v67q17 -14 64 -14z" />
    <glyph glyph-name="onesuperior" unicode="&#xb9;" horiz-adv-x="245" 
d="M94 258v311h-83v81h172v-392h-89z" />
    <glyph glyph-name="guillemotright" unicode="&#xbb;" horiz-adv-x="688" 
d="M479 321l-171 186h166l172 -186l-172 -186h-166zM188 507l172 -186l-172 -186h-165l171 186l-171 186h165z" />
    <glyph glyph-name="onequarter" unicode="&#xbc;" horiz-adv-x="518" 
d="M237 101l159 221h73v-215h38v-53h-38v-54h-73v54h-159v47zM430 650h72l-401 -650h-72zM7 582v68h144v-328h-74v260h-70zM396 107v123l-88 -123h88z" />
    <glyph glyph-name="onehalf" unicode="&#xbd;" horiz-adv-x="570" 
d="M27 0l401 650h72l-401 -650h-72zM322 247q8 27 38 51t76 24q52 0 82.5 -26.5t30.5 -71.5q0 -21 -8.5 -41.5t-26.5 -41t-27.5 -30t-28.5 -26.5l-22 -20h113v-65h-223l-1 58l47 42q103 86 103 120q0 33 -39 33q-19 0 -32.5 -11t-17.5 -25zM7 582v68h144v-328h-74v260h-70z
" />
    <glyph glyph-name="threequarters" unicode="&#xbe;" horiz-adv-x="570" 
d="M289 54v47l159 221h73v-215h38v-53h-38v-54h-73v54h-159zM56 422q27 -29 71 -29q26 0 41.5 11.5t15.5 31.5q0 21 -15.5 33t-41.5 12t-57 -9l1 52l76 59h-113v67h215v-62l-66 -57q74 -21 74 -95q0 -58 -38.5 -86t-91.5 -28q-36 0 -68.5 14t-47.5 36zM79 0l401 650h72
l-401 -650h-72zM448 107v123l-88 -123h88z" />
    <glyph glyph-name="questiondown" unicode="&#xbf;" horiz-adv-x="468" 
d="M24 241q12 31 24 45.5t34 37.5q32 35 42.5 47.5t22 33t11.5 38.5v16h147v-16q0 -81 -67 -146q-27 -28 -38 -40.5t-23.5 -34.5t-12.5 -42q0 -23 16.5 -38t50.5 -15q33 0 61 22t39 51l125 -62q-24 -61 -82 -103t-143 -42q-98 0 -159 46.5t-61 132.5q0 37 13 69zM177 640
q21 21 53 21q33 0 54 -21t21 -53q0 -33 -21 -54t-54 -21q-32 0 -53.5 21t-21.5 54q0 32 22 53z" />
    <glyph glyph-name="Agrave" unicode="&#xc0;" horiz-adv-x="671" 
d="M13 0l262 650h111l263 -650h-156l-35 90h-254l-35 -90h-156zM406 224l-76 192l-74 -192h150zM215 828h121l56 -118h-117z" />
    <glyph glyph-name="Aacute" unicode="&#xc1;" horiz-adv-x="671" 
d="M13 0l262 650h111l263 -650h-156l-35 90h-254l-35 -90h-156zM406 224l-76 192l-74 -192h150zM329 828h121l-60 -118h-117z" />
    <glyph glyph-name="Acircumflex" unicode="&#xc2;" horiz-adv-x="671" 
d="M275 650h111l263 -650h-156l-35 90h-254l-35 -90h-156zM252 828h160l76 -118h-116l-39 69l-40 -69h-117zM406 224l-76 192l-74 -192h150z" />
    <glyph glyph-name="Atilde" unicode="&#xc3;" horiz-adv-x="671" 
d="M275 650h111l263 -650h-156l-35 90h-254l-35 -90h-156zM189 796q28 35 81 35q46 0 77 -35q22 -24 42 -24q31 0 33 46h81q0 -56 -29 -91.5t-85 -35.5q-48 0 -79 35q-22 24 -37 24q-17 0 -24 -15t-7 -31h-81q0 56 28 92zM406 224l-76 192l-74 -192h150z" />
    <glyph glyph-name="Adieresis" unicode="&#xc4;" horiz-adv-x="671" 
d="M275 650h111l263 -650h-156l-35 90h-254l-35 -90h-156zM406 224l-76 192l-74 -192h150zM173 758q0 28 19.5 44.5t44.5 16.5t44.5 -16.5t19.5 -44.5q0 -29 -20 -47t-44 -18t-44 18t-20 47zM385 803q19 16 44 16q24 0 43.5 -16.5t19.5 -44.5q0 -29 -19.5 -47t-43.5 -18
q-25 0 -44.5 18t-19.5 47q0 28 20 45z" />
    <glyph glyph-name="Aring" unicode="&#xc5;" horiz-adv-x="671" 
d="M13 0l262 650h111l263 -650h-156l-35 90h-254l-35 -90h-156zM230 787q0 43 28 69.5t74 26.5t74 -26.5t28 -69.5q0 -41 -28 -68t-74 -27q-45 0 -73.5 27.5t-28.5 67.5zM406 224l-76 192l-74 -192h150zM297 787q0 -34 35 -34q36 0 36 34q0 35 -36 35q-35 0 -35 -35z" />
    <glyph glyph-name="AE" unicode="&#xc6;" horiz-adv-x="977" 
d="M13 0l271 650h636v-134h-272v-124h251v-134h-251v-124h272v-134h-419v258h-225l-107 -258h-156zM501 392v124h-118l-51 -124h169z" />
    <glyph glyph-name="Ccedilla" unicode="&#xc7;" horiz-adv-x="662" 
d="M125 564q92 94 236 94q172 0 263 -131l-118 -88q-22 30 -60.5 51t-84.5 21q-80 0 -130.5 -52t-50.5 -134t50.5 -134t130.5 -52q45 0 83.5 22.5t61.5 53.5l118 -92q-78 -112 -222 -129l-19 -32q72 -13 72 -71q0 -82 -118 -82q-42 0 -65 10v67q18 -13 65 -13q38 0 38 18
t-42 18q-29 0 -43 -7l-1 54l25 39q-126 16 -203.5 106.5t-77.5 223.5q0 145 92 239z" />
    <glyph glyph-name="Egrave" unicode="&#xc8;" horiz-adv-x="547" 
d="M43 0v650h446v-134h-299v-124h278v-134h-278v-124h299v-134h-446zM154 828h121l56 -118h-117z" />
    <glyph glyph-name="Eacute" unicode="&#xc9;" horiz-adv-x="547" 
d="M489 650v-134h-299v-124h278v-134h-278v-124h299v-134h-446v650h446zM212 710l56 118h121l-60 -118h-117z" />
    <glyph glyph-name="Ecircumflex" unicode="&#xca;" horiz-adv-x="547" 
d="M489 650v-134h-299v-124h278v-134h-278v-124h299v-134h-446v650h446zM115 710l76 118h160l76 -118h-116l-39 69l-40 -69h-117z" />
    <glyph glyph-name="Edieresis" unicode="&#xcb;" horiz-adv-x="547" 
d="M489 650v-134h-299v-124h278v-134h-278v-124h299v-134h-446v650h446zM132 803q19 16 44 16t44.5 -16.5t19.5 -44.5q0 -29 -20 -47t-44 -18t-44 18t-20 47q0 28 20 45zM324 803q19 16 44 16q24 0 43.5 -16.5t19.5 -44.5q0 -29 -19.5 -47t-43.5 -18q-25 0 -44.5 18
t-19.5 47q0 28 20 45z" />
    <glyph glyph-name="Igrave" unicode="&#xcc;" horiz-adv-x="252" 
d="M58 710l-60 118h121l56 -118h-117zM43 0v650h147v-650h-147z" />
    <glyph glyph-name="Iacute" unicode="&#xcd;" horiz-adv-x="252" 
d="M56 710l56 118h121l-60 -118h-117zM43 0v650h147v-650h-147z" />
    <glyph glyph-name="Icircumflex" unicode="&#xce;" horiz-adv-x="252" 
d="M43 650h147v-650h-147v650zM-41 710l76 118h160l76 -118h-116l-39 69l-40 -69h-117z" />
    <glyph glyph-name="Idieresis" unicode="&#xcf;" horiz-adv-x="252" 
d="M190 650v-650h-147v650h147zM-44 758q0 28 19.5 44.5t44.5 16.5t44.5 -16.5t19.5 -44.5q0 -29 -20 -47t-44 -18t-44 18t-20 47zM148 758q0 28 19.5 44.5t44.5 16.5q24 0 43.5 -16.5t19.5 -44.5q0 -29 -19.5 -47t-43.5 -18q-25 0 -44.5 18t-19.5 47z" />
    <glyph glyph-name="Ntilde" unicode="&#xd1;" horiz-adv-x="643" 
d="M185 650l248 -390v390h147v-650h-143l-247 389v-389h-147v650h142zM142 704q0 56 28 91.5t81 35.5q46 0 77 -35q22 -24 42 -24q31 0 33 46h81q0 -56 -29 -91.5t-85 -35.5q-48 0 -79 35q-22 24 -37 24q-17 0 -24 -15t-7 -31h-81z" />
    <glyph glyph-name="Ograve" unicode="&#xd2;" horiz-adv-x="735" 
d="M33 325q0 145 92 239t236 94t235 -94t91 -239t-91 -239t-235 -94t-236 94t-92 239zM180 325q0 -82 51 -134q50 -52 130 -52t129.5 52t49.5 134t-49.5 134t-129.5 52t-130.5 -52t-50.5 -134zM365 828l56 -118h-117l-60 118h121z" />
    <glyph glyph-name="Oacute" unicode="&#xd3;" horiz-adv-x="735" 
d="M33 325q0 145 92 239t236 94t235 -94t91 -239t-91 -239t-235 -94t-236 94t-92 239zM180 325q0 -82 51 -134q50 -52 130 -52t129.5 52t49.5 134t-49.5 134t-129.5 52t-130.5 -52t-50.5 -134zM358 828h121l-60 -118h-117z" />
    <glyph glyph-name="Ocircumflex" unicode="&#xd4;" horiz-adv-x="735" 
d="M33 325q0 145 92 239t236 94t235 -94t91 -239t-91 -239t-235 -94t-236 94t-92 239zM231 191q50 -52 130 -52t129.5 52t49.5 134t-49.5 134t-129.5 52t-130.5 -52t-50.5 -134t51 -134zM281 828h160l76 -118h-116l-39 69l-40 -69h-117z" />
    <glyph glyph-name="Otilde" unicode="&#xd5;" horiz-adv-x="735" 
d="M125 564q92 94 236 94t235 -94t91 -239t-91 -239t-235 -94t-236 94t-92 239t92 239zM180 325q0 -82 51 -134q50 -52 130 -52t129.5 52t49.5 134t-49.5 134t-129.5 52t-130.5 -52t-50.5 -134zM190 704q0 56 28 91.5t81 35.5q46 0 77 -35q22 -24 42 -24q31 0 33 46h81
q0 -56 -29 -91.5t-85 -35.5q-48 0 -79 35q-22 24 -37 24q-17 0 -24 -15t-7 -31h-81z" />
    <glyph glyph-name="Odieresis" unicode="&#xd6;" horiz-adv-x="735" 
d="M125 564q92 94 236 94t235 -94t91 -239t-91 -239t-235 -94t-236 94t-92 239t92 239zM180 325q0 -82 51 -134q50 -52 130 -52t129.5 52t49.5 134t-49.5 134t-129.5 52t-130.5 -52t-50.5 -134zM202 758q0 28 19.5 44.5t44.5 16.5t44.5 -16.5t19.5 -44.5q0 -29 -20 -47
t-44 -18t-44 18t-20 47zM414 803q19 16 44 16q24 0 43.5 -16.5t19.5 -44.5q0 -29 -19.5 -47t-43.5 -18q-25 0 -44.5 18t-19.5 47q0 28 20 45z" />
    <glyph glyph-name="multiply" unicode="&#xd7;" horiz-adv-x="519" 
d="M125 117l-82 76l127 127l-127 125l82 81l126 -125l124 124l81 -76l-126 -126l126 -125l-82 -81l-125 124z" />
    <glyph glyph-name="Oslash" unicode="&#xd8;" horiz-adv-x="735" 
d="M361 -8q-94 0 -171 44l-28 -36h-118l73 94q-84 92 -84 231q0 145 92 239t236 94q91 0 165 -41l32 41h118l-76 -98q87 -93 87 -235q0 -145 -91 -239t-235 -94zM210 213l224 286q-33 12 -73 12q-83 0 -132 -50.5t-49 -135.5q0 -65 30 -112zM361 139q83 0 131 50.5t48 135.5
q0 68 -33 117l-225 -288q34 -15 79 -15z" />
    <glyph glyph-name="Ugrave" unicode="&#xd9;" horiz-adv-x="614" 
d="M43 650h147v-403q0 -59 30.5 -85.5t76.5 -26.5t76.5 26.5t30.5 85.5v403h148v-419q0 -100 -68 -169q-68 -70 -187 -70t-186.5 69.5t-67.5 169.5v419zM181 828h121l56 -118h-117z" />
    <glyph glyph-name="Uacute" unicode="&#xda;" horiz-adv-x="614" 
d="M190 650v-403q0 -59 30.5 -85.5t76.5 -26.5t76.5 26.5t30.5 85.5v403h148v-419q0 -100 -68 -169q-68 -70 -187 -70t-186.5 69.5t-67.5 169.5v419h147zM295 828h121l-60 -118h-117z" />
    <glyph glyph-name="Ucircumflex" unicode="&#xdb;" horiz-adv-x="614" 
d="M190 650v-403q0 -59 30.5 -85.5t76.5 -26.5t76.5 26.5t30.5 85.5v403h148v-419q0 -100 -68 -169q-68 -70 -187 -70t-186.5 69.5t-67.5 169.5v419h147zM142 710l76 118h160l76 -118h-116l-39 69l-40 -69h-117z" />
    <glyph glyph-name="Udieresis" unicode="&#xdc;" horiz-adv-x="614" 
d="M43 650h147v-403q0 -59 30.5 -85.5t76.5 -26.5t76.5 26.5t30.5 85.5v403h148v-419q0 -100 -68 -169q-68 -70 -187 -70t-186.5 69.5t-67.5 169.5v419zM159 803q19 16 44 16t44.5 -16.5t19.5 -44.5q0 -29 -20 -47t-44 -18t-44 18t-20 47q0 28 20 45zM331 758
q0 28 19.5 44.5t44.5 16.5q24 0 43.5 -16.5t19.5 -44.5q0 -29 -19.5 -47t-43.5 -18q-25 0 -44.5 18t-19.5 47z" />
    <glyph glyph-name="Yacute" unicode="&#xdd;" horiz-adv-x="637" 
d="M7 650h169l135 -224l135 224h168l-229 -376v-274h-147v271zM252 710l56 118h121l-60 -118h-117z" />
    <glyph glyph-name="germandbls" unicode="&#xdf;" horiz-adv-x="546" 
d="M43 0v436q0 112 66 168.5t167 56.5q93 0 152 -47t59 -128q0 -78 -54 -124q80 -55 80 -164q0 -86 -58.5 -142t-168.5 -56h-67v125h32q24 0 40.5 2t37 8.5t31 22.5t10.5 40q0 76 -119 76h-32v117h29q45 0 76 21t31 57q0 33 -22.5 52.5t-56.5 19.5q-39 0 -65 -27t-26 -85
v-429h-142z" />
    <glyph glyph-name="agrave" unicode="&#xe0;" 
d="M85 401q61 66 155 66q72 0 119 -45v38h142v-460h-142v38q-46 -46 -119 -46q-93 0 -154.5 67.5t-61.5 170.5q0 104 61 171zM190 155q27 -29 71 -29t71 29t27 75t-27 74.5t-71 28.5q-45 0 -72 -29t-27 -74q0 -46 28 -75zM299 645l56 -118h-117l-60 118h121z" />
    <glyph glyph-name="aacute" unicode="&#xe1;" 
d="M85 401q61 66 155 66q72 0 119 -45v38h142v-460h-142v38q-46 -46 -119 -46q-93 0 -154.5 67.5t-61.5 170.5q0 104 61 171zM190 155q27 -29 71 -29t71 29t27 75t-27 74.5t-71 28.5q-45 0 -72 -29t-27 -74q0 -46 28 -75zM292 645h121l-60 -118h-117z" />
    <glyph glyph-name="acircumflex" unicode="&#xe2;" 
d="M85 401q61 66 155 66q72 0 119 -45v38h142v-460h-142v38q-46 -46 -119 -46q-93 0 -154.5 67.5t-61.5 170.5q0 104 61 171zM162 230q0 -46 28 -75q27 -29 71 -29t71 29t27 75t-27 74.5t-71 28.5q-45 0 -72 -29t-27 -74zM139 527l76 118h160l76 -118h-116l-39 69l-40 -69
h-117z" />
    <glyph glyph-name="atilde" unicode="&#xe3;" 
d="M24 230q0 104 61 170.5t155 66.5q72 0 119 -45v38h142v-460h-142v38q-46 -46 -119 -46q-93 0 -154.5 67.5t-61.5 170.5zM162 230q0 -46 28 -75q27 -29 71 -29t71 29t27 75t-27 74.5t-71 28.5q-45 0 -72 -29t-27 -74zM124 521q0 56 28 91.5t81 35.5q46 0 77 -35
q22 -24 42 -24q31 0 33 46h81q0 -56 -29 -91.5t-85 -35.5q-48 0 -79 35q-22 24 -37 24q-17 0 -24 -15t-7 -31h-81z" />
    <glyph glyph-name="adieresis" unicode="&#xe4;" 
d="M24 230q0 104 61 170.5t155 66.5q72 0 119 -45v38h142v-460h-142v38q-46 -46 -119 -46q-93 0 -154.5 67.5t-61.5 170.5zM190 155q27 -29 71 -29t71 29t27 75t-27 74.5t-71 28.5q-45 0 -72 -29t-27 -74q0 -46 28 -75zM156 620q19 16 44 16t44.5 -16.5t19.5 -44.5
q0 -29 -20 -47t-44 -18t-44 18t-20 47q0 28 20 45zM348 620q19 16 44 16q24 0 43.5 -16.5t19.5 -44.5q0 -29 -19.5 -47t-43.5 -18q-25 0 -44.5 18t-19.5 47q0 28 20 45z" />
    <glyph glyph-name="aring" unicode="&#xe5;" 
d="M85 401q61 66 155 66q72 0 119 -45v38h142v-460h-142v38q-46 -46 -119 -46q-93 0 -154.5 67.5t-61.5 170.5q0 104 61 171zM190 155q27 -29 71 -29t71 29t27 75t-27 74.5t-71 28.5q-45 0 -72 -29t-27 -74q0 -46 28 -75zM221 674q28 26 74 26t74 -26.5t28 -69.5
q0 -41 -28 -68t-74 -27q-45 0 -73.5 27.5t-28.5 67.5q0 43 28 70zM295 570q36 0 36 34q0 35 -36 35q-35 0 -35 -35q0 -34 35 -34z" />
    <glyph glyph-name="ae" unicode="&#xe6;" horiz-adv-x="888" 
d="M226 -8q-202 0 -202 131q0 43 21.5 72.5t63 44.5t84 21t102.5 9q-5 90 -76 90q-52 0 -71 -41l-111 40q39 108 192 108q76 0 126.5 -32t69.5 -87q27 56 79 87.5t121 31.5q95 0 157 -67t62 -170v-43h-296q9 -37 33 -55.5t53 -18.5q60 0 90 46l99 -68q-65 -99 -192 -99
q-71 0 -125 34t-82 91q-21 -58 -65 -91.5t-133 -33.5zM547 271h166q-7 44 -29 64t-50 20q-76 0 -87 -84zM217 91q37 0 56.5 18.5t21.5 74.5q-71 -4 -102 -15t-31 -39q0 -18 14.5 -28.5t40.5 -10.5z" />
    <glyph glyph-name="ccedilla" unicode="&#xe7;" horiz-adv-x="481" 
d="M24 230q0 105 65.5 171.5t170.5 66.5q122 0 187 -93l-102 -79q-29 37 -81 37q-45 0 -73 -29t-28 -74t28 -74.5t73 -29.5q52 0 81 36l102 -77q-50 -73 -142 -90l-19 -33q72 -13 72 -71q0 -82 -118 -82q-42 0 -65 10v67q18 -13 65 -13q38 0 38 18t-42 18q-29 0 -43 -7
l-1 54l25 38q-87 14 -140 78.5t-53 157.5z" />
    <glyph glyph-name="egrave" unicode="&#xe8;" horiz-adv-x="519" 
d="M87 402q63 67 167 67q102 0 162 -67t60 -172v-38h-314q9 -38 35 -59.5t62 -21.5q65 0 97 43l97 -72q-31 -43 -81.5 -67.5t-112.5 -24.5q-105 0 -170 68t-65 172t63 172zM137 645h121l56 -118h-117zM164 281h178q-21 76 -88 76q-69 0 -90 -76z" />
    <glyph glyph-name="eacute" unicode="&#xe9;" horiz-adv-x="519" 
d="M87 402q63 67 167 67q102 0 162 -67t60 -172v-38h-314q9 -38 35 -59.5t62 -21.5q65 0 97 43l97 -72q-31 -43 -81.5 -67.5t-112.5 -24.5q-105 0 -170 68t-65 172t63 172zM251 645h121l-60 -118h-117zM164 281h178q-21 76 -88 76q-69 0 -90 -76z" />
    <glyph glyph-name="ecircumflex" unicode="&#xea;" horiz-adv-x="519" 
d="M87 402q63 67 167 67q102 0 162 -67t60 -172v-38h-314q9 -38 35 -59.5t62 -21.5q65 0 97 43l97 -72q-31 -43 -81.5 -67.5t-112.5 -24.5q-105 0 -170 68t-65 172t63 172zM174 645h160l76 -118h-116l-39 69l-40 -69h-117zM342 281q-21 76 -88 76q-69 0 -90 -76h178z" />
    <glyph glyph-name="edieresis" unicode="&#xeb;" horiz-adv-x="519" 
d="M24 230q0 104 63 171.5t167 67.5q102 0 162 -67t60 -172v-38h-314q9 -38 35 -59.5t62 -21.5q65 0 97 43l97 -72q-31 -43 -81.5 -67.5t-112.5 -24.5q-105 0 -170 68t-65 172zM115 620q19 16 44 16t44.5 -16.5t19.5 -44.5q0 -29 -20 -47t-44 -18t-44 18t-20 47q0 28 20 45z
M307 620q19 16 44 16q24 0 43.5 -16.5t19.5 -44.5q0 -29 -19.5 -47t-43.5 -18q-25 0 -44.5 18t-19.5 47q0 28 20 45zM342 281q-21 76 -88 76q-69 0 -90 -76h178z" />
    <glyph glyph-name="igrave" unicode="&#xec;" horiz-adv-x="251" 
d="M58 527l-60 118h121l56 -118h-117zM44 0v460h143l-1 -460h-142z" />
    <glyph glyph-name="iacute" unicode="&#xed;" horiz-adv-x="251" 
d="M56 527l56 118h121l-60 -118h-117zM44 0v460h143l-1 -460h-142z" />
    <glyph glyph-name="icircumflex" unicode="&#xee;" horiz-adv-x="251" 
d="M44 460h143l-1 -460h-142v460zM-41 527l76 118h160l76 -118h-116l-39 69l-40 -69h-117z" />
    <glyph glyph-name="idieresis" unicode="&#xef;" horiz-adv-x="251" 
d="M187 460l-1 -460h-142v460h143zM-44 575q0 28 19.5 44.5t44.5 16.5t44.5 -16.5t19.5 -44.5q0 -29 -20 -47t-44 -18t-44 18t-20 47zM148 575q0 28 19.5 44.5t44.5 16.5q24 0 43.5 -16.5t19.5 -44.5q0 -29 -19.5 -47t-43.5 -18q-25 0 -44.5 18t-19.5 47z" />
    <glyph glyph-name="ntilde" unicode="&#xf1;" horiz-adv-x="548" 
d="M185 460v-38q46 45 122 45q72 0 125.5 -44t53.5 -142v-281h-143v258q0 51 -25.5 70t-54.5 19q-17 0 -32 -5t-30.5 -26.5t-15.5 -57.5v-258h-142v460h142zM92 521q0 56 28 91.5t81 35.5q46 0 77 -35q22 -24 42 -24q31 0 33 46h81q0 -56 -29 -91.5t-85 -35.5q-48 0 -79 35
q-22 24 -37 24q-17 0 -24 -15t-7 -31h-81z" />
    <glyph glyph-name="ograve" unicode="&#xf2;" horiz-adv-x="544" 
d="M24 230q0 105 67 172.5t172 67.5q104 0 171 -67.5t67 -172.5q0 -103 -67 -171q-67 -69 -171 -69t-171.5 68.5t-67.5 171.5zM164 230q0 -45 28 -74q27 -30 71 -30t70.5 29.5t26.5 74.5t-26.5 74t-70.5 29t-71.5 -29t-27.5 -74zM267 645l56 -118h-117l-60 118h121z" />
    <glyph glyph-name="oacute" unicode="&#xf3;" horiz-adv-x="544" 
d="M24 230q0 105 67 172.5t172 67.5q104 0 171 -67.5t67 -172.5q0 -103 -67 -171q-67 -69 -171 -69t-171.5 68.5t-67.5 171.5zM164 230q0 -45 28 -74q27 -30 71 -30t70.5 29.5t26.5 74.5t-26.5 74t-70.5 29t-71.5 -29t-27.5 -74zM260 645h121l-60 -118h-117z" />
    <glyph glyph-name="ocircumflex" unicode="&#xf4;" horiz-adv-x="544" 
d="M91 403q67 67 172 67q104 0 171 -67.5t67 -172.5q0 -103 -67 -171q-67 -69 -171 -69t-171.5 68.5t-67.5 171.5q0 105 67 173zM192 156q27 -30 71 -30t70.5 29.5t26.5 74.5t-26.5 74t-70.5 29t-71.5 -29t-27.5 -74t28 -74zM183 645h160l76 -118h-116l-39 69l-40 -69h-117z
" />
    <glyph glyph-name="otilde" unicode="&#xf5;" horiz-adv-x="544" 
d="M91 403q67 67 172 67q104 0 171 -67.5t67 -172.5q0 -103 -67 -171q-67 -69 -171 -69t-171.5 68.5t-67.5 171.5q0 105 67 173zM164 230q0 -45 28 -74q27 -30 71 -30t70.5 29.5t26.5 74.5t-26.5 74t-70.5 29t-71.5 -29t-27.5 -74zM92 521q0 56 28 91.5t81 35.5q46 0 77 -35
q22 -24 42 -24q31 0 33 46h81q0 -56 -29 -91.5t-85 -35.5q-48 0 -79 35q-22 24 -37 24q-17 0 -24 -15t-7 -31h-81z" />
    <glyph glyph-name="odieresis" unicode="&#xf6;" horiz-adv-x="544" 
d="M91 403q67 67 172 67q104 0 171 -67.5t67 -172.5q0 -103 -67 -171q-67 -69 -171 -69t-171.5 68.5t-67.5 171.5q0 105 67 173zM164 230q0 -45 28 -74q27 -30 71 -30t70.5 29.5t26.5 74.5t-26.5 74t-70.5 29t-71.5 -29t-27.5 -74zM124 620q19 16 44 16t44.5 -16.5
t19.5 -44.5q0 -29 -20 -47t-44 -18t-44 18t-20 47q0 28 20 45zM316 620q19 16 44 16q24 0 43.5 -16.5t19.5 -44.5q0 -29 -19.5 -47t-43.5 -18q-25 0 -44.5 18t-19.5 47q0 28 20 45z" />
    <glyph glyph-name="divide" unicode="&#xf7;" horiz-adv-x="526" 
d="M253 434q-32 0 -53 21t-21 53t21 52.5t53 20.5q33 0 53.5 -20.5t20.5 -52.5t-20.5 -53t-53.5 -21zM43 268v108h421v-108h-421zM253 63q-32 0 -53 21t-21 53t21 52.5t53 20.5q33 0 53.5 -20.5t20.5 -52.5t-20.5 -53t-53.5 -21z" />
    <glyph glyph-name="oslash" unicode="&#xf8;" horiz-adv-x="544" 
d="M263 -10q-73 0 -134 37l-21 -27h-50l40 52q-74 69 -74 178q0 105 67 172.5t172 67.5q74 0 132 -36l21 26h50l-39 -50q74 -69 74 -180q0 -103 -67 -171.5t-171 -68.5zM185 163l124 159q-20 11 -46 11q-44 0 -71.5 -29t-27.5 -74q0 -40 21 -67zM263 126q44 0 70.5 29.5
t26.5 74.5q0 40 -21 67l-124 -160q22 -11 48 -11z" />
    <glyph glyph-name="ugrave" unicode="&#xf9;" horiz-adv-x="548" 
d="M43 460h142v-259q0 -51 26 -70t54 -19q17 0 32 5t30.5 26.5t15.5 57.5v259h143v-460h-143v37q-46 -45 -122 -45q-32 0 -61.5 9.5t-57 29.5t-43.5 58t-16 90v281zM271 645l56 -118h-117l-60 118h121z" />
    <glyph glyph-name="uacute" unicode="&#xfa;" horiz-adv-x="548" 
d="M43 460h142v-259q0 -51 26 -70t54 -19q17 0 32 5t30.5 26.5t15.5 57.5v259h143v-460h-143v37q-46 -45 -122 -45q-32 0 -61.5 9.5t-57 29.5t-43.5 58t-16 90v281zM208 527l56 118h121l-60 -118h-117z" />
    <glyph glyph-name="ucircumflex" unicode="&#xfb;" horiz-adv-x="548" 
d="M43 460h142v-259q0 -51 26 -70t54 -19q17 0 32 5t30.5 26.5t15.5 57.5v259h143v-460h-143v37q-46 -45 -122 -45q-32 0 -61.5 9.5t-57 29.5t-43.5 58t-16 90v281zM187 645h160l76 -118h-116l-39 69l-40 -69h-117z" />
    <glyph glyph-name="udieresis" unicode="&#xfc;" horiz-adv-x="548" 
d="M43 460h142v-259q0 -51 26 -70t54 -19q17 0 32 5t30.5 26.5t15.5 57.5v259h143v-460h-143v37q-46 -45 -122 -45q-32 0 -61.5 9.5t-57 29.5t-43.5 58t-16 90v281zM108 575q0 28 19.5 44.5t44.5 16.5t44.5 -16.5t19.5 -44.5q0 -29 -20 -47t-44 -18t-44 18t-20 47zM320 620
q19 16 44 16q24 0 43.5 -16.5t19.5 -44.5q0 -29 -19.5 -47t-43.5 -18q-25 0 -44.5 18t-19.5 47q0 28 20 45z" />
    <glyph glyph-name="yacute" unicode="&#xfd;" horiz-adv-x="530" 
d="M153 460l103 -263l105 263h147l-256 -644h-138l73 185l-181 459h147zM253 645h121l-60 -118h-117z" />
    <glyph glyph-name="ydieresis" unicode="&#xff;" horiz-adv-x="530" 
d="M6 460h147l103 -263l105 263h147l-256 -644h-138l73 185zM97 575q0 28 19.5 44.5t44.5 16.5t44.5 -16.5t19.5 -44.5q0 -29 -20 -47t-44 -18t-44 18t-20 47zM289 575q0 28 19.5 44.5t44.5 16.5q24 0 43.5 -16.5t19.5 -44.5q0 -29 -19.5 -47t-43.5 -18q-25 0 -44.5 18
t-19.5 47z" />
    <glyph glyph-name="Amacron" unicode="&#x100;" horiz-adv-x="671" 
d="M275 650h111l263 -650h-156l-35 90h-254l-35 -90h-156zM230 796h204v-90h-204v90zM406 224l-76 192l-74 -192h150z" />
    <glyph glyph-name="amacron" unicode="&#x101;" 
d="M85 401q61 66 155 66q72 0 119 -45v38h142v-460h-142v38q-46 -46 -119 -46q-93 0 -154.5 67.5t-61.5 170.5q0 104 61 171zM190 155q27 -29 71 -29t71 29t27 75t-27 74.5t-71 28.5q-45 0 -72 -29t-27 -74q0 -46 28 -75zM193 523v90h204v-90h-204z" />
    <glyph glyph-name="Abreve" unicode="&#x102;" horiz-adv-x="671" 
d="M13 0l262 650h111l263 -650h-156l-35 90h-254l-35 -90h-156zM202 822h81v-3q0 -18 13.5 -31.5t35.5 -13.5t34.5 13.5t12.5 31.5v3h81v-3q0 -54 -35 -85.5t-93 -31.5q-59 0 -94.5 31.5t-35.5 85.5v3zM406 224l-76 192l-74 -192h150z" />
    <glyph glyph-name="abreve" unicode="&#x103;" 
d="M85 401q61 66 155 66q72 0 119 -45v38h142v-460h-142v38q-46 -46 -119 -46q-93 0 -154.5 67.5t-61.5 170.5q0 104 61 171zM162 230q0 -46 28 -75q27 -29 71 -29t71 29t27 75t-27 74.5t-71 28.5q-45 0 -72 -29t-27 -74zM165 636v3h81v-3q0 -18 13.5 -31.5t35.5 -13.5
t34.5 13.5t12.5 31.5v3h81v-3q0 -54 -35 -85.5t-93 -31.5q-59 0 -94.5 31.5t-35.5 85.5z" />
    <glyph glyph-name="Aogonek" unicode="&#x104;" horiz-adv-x="671" 
d="M577 -58q0 -9 6 -15t15 -7t12 -1q15 0 39 9v-81q-26 -7 -51 -7q-30 0 -68 15t-38 65q0 46 43 80h-42l-35 90h-254l-35 -90h-156l262 650h111l263 -650h-33q-39 -30 -39 -58zM256 224h150l-76 192z" />
    <glyph glyph-name="aogonek" unicode="&#x105;" 
d="M85 401q61 66 155 66q72 0 119 -45v38h142v-451h1q-1 0 -1 -1v-8h-12q-43 -30 -43 -61q0 -9 6 -15t15 -7t12 -1q15 0 39 9v-81q-26 -7 -51 -7q-30 0 -68 15t-38 65q0 47 47 83h-49v38q-46 -46 -119 -46q-93 0 -154.5 67.5t-61.5 170.5q0 104 61 171zM190 155
q27 -29 71 -29t71 29t27 75t-27 74.5t-71 28.5q-45 0 -72 -29t-27 -74q0 -46 28 -75z" />
    <glyph glyph-name="Cacute" unicode="&#x106;" horiz-adv-x="662" 
d="M125 564q92 94 236 94q172 0 263 -131l-118 -88q-22 30 -60.5 51t-84.5 21q-80 0 -130.5 -52t-50.5 -134t50.5 -134t130.5 -52q45 0 83.5 22.5t61.5 53.5l118 -92q-91 -131 -263 -131q-144 0 -236 94t-92 239t92 239zM346 830h121l-60 -118h-117z" />
    <glyph glyph-name="cacute" unicode="&#x107;" horiz-adv-x="481" 
d="M90 402q65 66 170 66q122 0 187 -93l-102 -79q-29 37 -81 37q-45 0 -73 -29t-28 -74t28 -74.5t73 -29.5q52 0 81 36l102 -77q-65 -94 -187 -94q-105 0 -170.5 67t-65.5 172t66 172zM201 527l56 118h121l-60 -118h-117z" />
    <glyph glyph-name="Cdotaccent" unicode="&#x10a;" horiz-adv-x="662" 
d="M33 325q0 145 92 239t236 94q172 0 263 -131l-118 -88q-22 30 -60.5 51t-84.5 21q-80 0 -130.5 -52t-50.5 -134t50.5 -134t130.5 -52q45 0 83.5 22.5t61.5 53.5l118 -92q-91 -131 -263 -131q-144 0 -236 94t-92 239zM285 760q0 28 19.5 44.5t44.5 16.5t44.5 -16.5
t19.5 -44.5q0 -29 -20 -47t-44 -18t-44 18t-20 47z" />
    <glyph glyph-name="cdotaccent" unicode="&#x10b;" horiz-adv-x="481" 
d="M24 230q0 105 65.5 171.5t170.5 66.5q122 0 187 -93l-102 -79q-29 37 -81 37q-45 0 -73 -29t-28 -74t28 -74.5t73 -29.5q52 0 81 36l102 -77q-65 -94 -187 -94q-105 0 -170.5 67t-65.5 172zM216 620q19 16 44 16t44.5 -16.5t19.5 -44.5q0 -29 -20 -47t-44 -18t-44 18
t-20 47q0 28 20 45z" />
    <glyph glyph-name="Ccaron" unicode="&#x10c;" horiz-adv-x="662" 
d="M125 564q92 94 236 94q172 0 263 -131l-118 -88q-22 30 -60.5 51t-84.5 21q-80 0 -130.5 -52t-50.5 -134t50.5 -134t130.5 -52q45 0 83.5 22.5t61.5 53.5l118 -92q-91 -131 -263 -131q-144 0 -236 94t-92 239t92 239zM310 830l40 -65l39 65h116l-76 -118h-160l-76 118
h117z" />
    <glyph glyph-name="ccaron" unicode="&#x10d;" horiz-adv-x="481" 
d="M90 402q65 66 170 66q122 0 187 -93l-102 -79q-29 37 -81 37q-45 0 -73 -29t-28 -74t28 -74.5t73 -29.5q52 0 81 36l102 -77q-65 -94 -187 -94q-105 0 -170.5 67t-65.5 172t66 172zM104 645h117l40 -65l39 65h116l-76 -118h-160z" />
    <glyph glyph-name="Dcaron" unicode="&#x10e;" horiz-adv-x="657" 
d="M43 650h247q142 0 230.5 -90t88.5 -235t-88.5 -235t-230.5 -90h-247v650zM190 507v-364h100q22 0 47 7t55.5 24t50 56t19.5 95q0 45 -14 79.5t-33.5 53t-45 30.5t-44.5 15.5t-35 3.5h-100zM224 829l40 -65l39 65h116l-76 -118h-160l-76 118h117z" />
    <glyph glyph-name="dcaron" unicode="&#x10f;" 
d="M85 401q61 66 155 66q72 0 119 -45v228h142v-650h-142v38q-46 -46 -119 -46q-93 0 -154.5 67.5t-61.5 170.5q0 104 61 171zM162 230q0 -46 28 -75q27 -29 71 -29t71 29t27 75t-27 74.5t-71 28.5q-45 0 -72 -29t-27 -74zM273 828h117l40 -65l39 65h116l-76 -118h-160z" />
    <glyph glyph-name="Dcroat" unicode="&#x110;" horiz-adv-x="662" 
d="M43 0v254h-42v134h42v262h249q144 0 233 -90t89 -235t-89 -235t-233 -90h-249zM190 145h104q21 0 46.5 7t56 24.5t50.5 56t20 92.5q0 43 -14.5 77t-34 52.5t-45 30.5t-45 16t-35.5 4h-103v-117h87v-134h-87v-109z" />
    <glyph glyph-name="Emacron" unicode="&#x112;" horiz-adv-x="547" 
d="M43 0v650h446v-134h-299v-124h278v-134h-278v-124h299v-134h-446zM169 796h204v-90h-204v90z" />
    <glyph glyph-name="emacron" unicode="&#x113;" horiz-adv-x="519" 
d="M87 402q63 67 167 67q102 0 162 -67t60 -172v-38h-314q9 -38 35 -59.5t62 -21.5q65 0 97 43l97 -72q-31 -43 -81.5 -67.5t-112.5 -24.5q-105 0 -170 68t-65 172t63 172zM152 613h204v-90h-204v90zM164 281h178q-21 76 -88 76q-69 0 -90 -76z" />
    <glyph glyph-name="Edotaccent" unicode="&#x116;" horiz-adv-x="547" 
d="M43 650h446v-134h-299v-124h278v-134h-278v-124h299v-134h-446v650zM207 758q0 28 19.5 44.5t44.5 16.5t44.5 -16.5t19.5 -44.5q0 -29 -20 -47t-44 -18t-44 18t-20 47z" />
    <glyph glyph-name="edotaccent" unicode="&#x117;" horiz-adv-x="519" 
d="M87 402q63 67 167 67q102 0 162 -67t60 -172v-38h-314q9 -38 35 -59.5t62 -21.5q65 0 97 43l97 -72q-31 -43 -81.5 -67.5t-112.5 -24.5q-105 0 -170 68t-65 172t63 172zM210 620q19 16 44 16t44.5 -16.5t19.5 -44.5q0 -29 -20 -47t-44 -18t-44 18t-20 47q0 28 20 45z
M342 281q-21 76 -88 76q-69 0 -90 -76h178z" />
    <glyph glyph-name="Eogonek" unicode="&#x118;" horiz-adv-x="547" 
d="M489 650v-134h-299v-124h278v-134h-278v-124h299v-123h2q-1 0 -1 -0.5t-1 -0.5v-10h-14q-40 -32 -40 -59q0 -9 6 -15t15 -7t12 -1q15 0 39 9v-81q-26 -7 -51 -7q-30 0 -68 15t-38 65q0 46 44 81h-351v650h446z" />
    <glyph glyph-name="eogonek" unicode="&#x119;" horiz-adv-x="519" 
d="M24 230q0 104 63 171.5t167 67.5q102 0 162 -67t60 -172v-38h-314q9 -38 35 -59.5t62 -21.5q65 0 97 43l97 -72q-52 -74 -153 -89q-46 -32 -46 -63q0 -9 6 -15t15 -7t12 -1q15 0 39 9v-81q-26 -7 -51 -7q-30 0 -68 15t-38 65q0 51 50 85q-89 13 -142 78.5t-53 158.5z
M342 281q-21 76 -88 76q-69 0 -90 -76h178z" />
    <glyph glyph-name="Ecaron" unicode="&#x11a;" horiz-adv-x="547" 
d="M43 0v650h446v-134h-299v-124h278v-134h-278v-124h299v-134h-446zM115 828h117l40 -65l39 65h116l-76 -118h-160z" />
    <glyph glyph-name="ecaron" unicode="&#x11b;" horiz-adv-x="519" 
d="M87 402q63 67 167 67q102 0 162 -67t60 -172v-38h-314q9 -38 35 -59.5t62 -21.5q65 0 97 43l97 -72q-31 -43 -81.5 -67.5t-112.5 -24.5q-105 0 -170 68t-65 172t63 172zM98 645h117l40 -65l39 65h116l-76 -118h-160zM342 281q-21 76 -88 76q-69 0 -90 -76h178z" />
    <glyph glyph-name="Gbreve" unicode="&#x11e;" horiz-adv-x="725" 
d="M125 564q92 94 236 94q85 0 152.5 -34.5t110.5 -95.5l-119 -88q-52 71 -144 71q-80 0 -130.5 -52t-50.5 -134t50.5 -134t130.5 -52q50 0 91 26.5t52 76.5h-152v134h321v-66q-5 -141 -89 -229.5t-223 -88.5q-144 0 -236 94t-92 239t92 239zM231 822h81v-3
q0 -18 13.5 -31.5t35.5 -13.5t34.5 13.5t12.5 31.5v3h81v-3q0 -54 -35 -85.5t-93 -31.5q-59 0 -94.5 31.5t-35.5 85.5v3z" />
    <glyph glyph-name="gbreve" unicode="&#x11f;" 
d="M85 400q61 67 154 67q74 0 120 -46v39h142v-428q0 -103 -64.5 -166.5t-182.5 -63.5q-126 0 -197 84l93 78q41 -42 104 -42q14 0 29 4t33.5 15t30.5 34.5t12 56.5v7q-47 -47 -120 -47q-93 0 -154 67.5t-61 170.5t61 170zM189 155q27 -29 71 -29t71.5 29t27.5 75
q0 45 -27 74t-72 29q-44 0 -71 -28.5t-27 -74.5t27 -75zM141 639h81v-3q0 -18 13.5 -31.5t35.5 -13.5t34.5 13.5t12.5 31.5v3h81v-3q0 -54 -35 -85.5t-93 -31.5q-59 0 -94.5 31.5t-35.5 85.5v3z" />
    <glyph glyph-name="Gdotaccent" unicode="&#x120;" horiz-adv-x="725" 
d="M33 325q0 145 92 239t236 94q85 0 152.5 -34.5t110.5 -95.5l-119 -88q-52 71 -144 71q-80 0 -130.5 -52t-50.5 -134t50.5 -134t130.5 -52q50 0 91 26.5t52 76.5h-152v134h321v-66q-5 -141 -89 -229.5t-223 -88.5q-144 0 -236 94t-92 239zM317 803q19 16 44 16t44.5 -16.5
t19.5 -44.5q0 -29 -20 -47t-44 -18t-44 18t-20 47q0 28 20 45z" />
    <glyph glyph-name="gdotaccent" unicode="&#x121;" 
d="M24 230q0 103 61 170t154 67q74 0 120 -46v39h142v-428q0 -103 -64.5 -166.5t-182.5 -63.5q-126 0 -197 84l93 78q41 -42 104 -42q14 0 29 4t33.5 15t30.5 34.5t12 56.5v7q-47 -47 -120 -47q-93 0 -154 67.5t-61 170.5zM189 155q27 -29 71 -29t71.5 29t27.5 75
q0 45 -27 74t-72 29q-44 0 -71 -28.5t-27 -74.5t27 -75zM207 575q0 28 19.5 44.5t44.5 16.5t44.5 -16.5t19.5 -44.5q0 -29 -20 -47t-44 -18t-44 18t-20 47z" />
    <glyph glyph-name="uni0122" unicode="&#x122;" horiz-adv-x="725" 
d="M125 564q92 94 236 94q85 0 152.5 -34.5t110.5 -95.5l-119 -88q-52 71 -144 71q-80 0 -130.5 -52t-50.5 -134t50.5 -134t130.5 -52q50 0 91 26.5t52 76.5h-152v134h321v-66q-5 -141 -89 -229.5t-223 -88.5q-144 0 -236 94t-92 239t92 239zM309 -54h117l-63 -115h-113z
" />
    <glyph glyph-name="uni0123" unicode="&#x123;" 
d="M24 230q0 103 61 170t154 67q74 0 120 -46v39h142v-428q0 -103 -64.5 -166.5t-182.5 -63.5q-126 0 -197 84l93 78q41 -42 104 -42q14 0 29 4t33.5 15t30.5 34.5t12 56.5v7q-47 -47 -120 -47q-93 0 -154 67.5t-61 170.5zM162 230q0 -46 27 -75t71 -29t71.5 29t27.5 75
q0 45 -27 74t-72 29q-44 0 -71 -28.5t-27 -74.5zM205 572q0 44 65 96h67q-31 -24 -43 -43q39 -12 39 -53q0 -24 -16 -42t-46 -18t-48 18t-18 42z" />
    <glyph glyph-name="Itilde" unicode="&#x128;" horiz-adv-x="252" 
d="M43 650h147v-650h-147v650zM-56 704q0 56 28 91.5t81 35.5q46 0 77 -35q22 -24 42 -24q31 0 33 46h81q0 -56 -29 -91.5t-85 -35.5q-48 0 -79 35q-22 24 -37 24q-17 0 -24 -15t-7 -31h-81z" />
    <glyph glyph-name="itilde" unicode="&#x129;" horiz-adv-x="251" 
d="M44 460h143l-1 -460h-142v460zM-56 521q0 56 28 91.5t81 35.5q46 0 77 -35q22 -24 42 -24q31 0 33 46h81q0 -56 -29 -91.5t-85 -35.5q-48 0 -79 35q-22 24 -37 24q-17 0 -24 -15t-7 -31h-81z" />
    <glyph glyph-name="Imacron" unicode="&#x12a;" horiz-adv-x="252" 
d="M13 706v90h204v-90h-204zM43 0v650h147v-650h-147z" />
    <glyph glyph-name="imacron" unicode="&#x12b;" horiz-adv-x="251" 
d="M13 523v90h204v-90h-204zM44 0v460h143l-1 -460h-142z" />
    <glyph glyph-name="Iogonek" unicode="&#x12e;" horiz-adv-x="252" 
d="M43 650h147v-650h-16q-45 -32 -45 -62q0 -9 6 -15t15 -7t12 -1q15 0 39 9v-81q-26 -7 -51 -7q-30 0 -68 15t-38 65t48 84h-49v650z" />
    <glyph glyph-name="iogonek" unicode="&#x12f;" horiz-adv-x="251" 
d="M44 -85q0 51 50 85h-50v460h143l-1 -460h-11q-46 -32 -46 -63q0 -9 6 -15t15 -7t12 -1q15 0 39 9v-81q-26 -7 -51 -7q-30 0 -68 15t-38 65zM71 620q19 16 44 16t44.5 -16.5t19.5 -44.5q0 -29 -20 -47t-44 -18t-44 18t-20 47q0 28 20 45z" />
    <glyph glyph-name="Idotaccent" unicode="&#x130;" horiz-adv-x="252" 
d="M190 650v-650h-147v650h147zM71 803q19 16 44 16t44.5 -16.5t19.5 -44.5q0 -29 -20 -47t-44 -18t-44 18t-20 47q0 28 20 45z" />
    <glyph glyph-name="dotlessi" unicode="&#x131;" horiz-adv-x="251" 
d="M44 0v460h143l-1 -460h-142z" />
    <glyph glyph-name="uni0136" unicode="&#x136;" horiz-adv-x="579" 
d="M190 650v-256l187 256h166l-231 -325l244 -325h-170l-196 259v-259h-147v650h147zM230 -50h117l-63 -115h-113z" />
    <glyph glyph-name="uni0137" unicode="&#x137;" horiz-adv-x="524" 
d="M185 650v-357l130 167h165l-170 -218l191 -242h-165l-151 191v-191h-142v650h142zM200 -50h117l-63 -115h-113z" />
    <glyph glyph-name="Lacute" unicode="&#x139;" horiz-adv-x="530" 
d="M56 710l56 118h121l-60 -118h-117zM43 0v650h147v-516h297v-134h-444z" />
    <glyph glyph-name="lacute" unicode="&#x13a;" horiz-adv-x="248" 
d="M56 710l56 118h121l-60 -118h-117zM43 0v650h143l-1 -650h-142z" />
    <glyph glyph-name="uni013B" unicode="&#x13b;" horiz-adv-x="530" 
d="M43 0v650h147v-516h297v-134h-444zM153 -165l59 115h117l-63 -115h-113z" />
    <glyph glyph-name="uni013C" unicode="&#x13c;" horiz-adv-x="248" 
d="M43 0v650h143l-1 -650h-142zM3 -165l59 115h117l-63 -115h-113z" />
    <glyph glyph-name="Lcaron" unicode="&#x13d;" horiz-adv-x="530" 
d="M190 650v-516h297v-134h-444v650h147zM-41 828h117l40 -65l39 65h116l-76 -118h-160z" />
    <glyph glyph-name="lcaron" unicode="&#x13e;" horiz-adv-x="248" 
d="M43 650h143l-1 -650h-142v650zM-41 828h117l40 -65l39 65h116l-76 -118h-160z" />
    <glyph glyph-name="Lslash" unicode="&#x141;" horiz-adv-x="528" 
d="M43 0v269l-42 -15v138l42 15v243h147v-190l95 34v-138l-95 -34v-188h295v-134h-442z" />
    <glyph glyph-name="lslash" unicode="&#x142;" horiz-adv-x="248" 
d="M43 0v252l-37 -13v114l37 13v284h142v-236l54 19v-114l-54 -19v-300h-142z" />
    <glyph glyph-name="Nacute" unicode="&#x143;" horiz-adv-x="643" 
d="M185 650l248 -390v390h147v-650h-143l-247 389v-389h-147v650h142zM254 710l56 118h121l-60 -118h-117z" />
    <glyph glyph-name="nacute" unicode="&#x144;" horiz-adv-x="548" 
d="M43 460h142v-38q46 45 122 45q72 0 125.5 -44t53.5 -142v-281h-143v258q0 51 -25.5 70t-54.5 19q-17 0 -32 -5t-30.5 -26.5t-15.5 -57.5v-258h-142v460zM260 645h121l-60 -118h-117z" />
    <glyph glyph-name="uni0145" unicode="&#x145;" horiz-adv-x="643" 
d="M185 650l248 -390v390h147v-650h-143l-247 389v-389h-147v650h142zM263 -50h117l-63 -115h-113z" />
    <glyph glyph-name="uni0146" unicode="&#x146;" horiz-adv-x="548" 
d="M43 460h142v-38q46 45 122 45q72 0 125.5 -44t53.5 -142v-281h-143v258q0 51 -25.5 70t-54.5 19q-17 0 -32 -5t-30.5 -26.5t-15.5 -57.5v-258h-142v460zM152 -165l59 115h117l-63 -115h-113z" />
    <glyph glyph-name="Ncaron" unicode="&#x147;" horiz-adv-x="643" 
d="M185 650l248 -390v390h147v-650h-143l-247 389v-389h-147v650h142zM157 828h117l40 -65l39 65h116l-76 -118h-160z" />
    <glyph glyph-name="ncaron" unicode="&#x148;" horiz-adv-x="548" 
d="M43 0v460h142v-38q46 45 122 45q72 0 125.5 -44t53.5 -142v-281h-143v258q0 51 -25.5 70t-54.5 19q-17 0 -32 -5t-30.5 -26.5t-15.5 -57.5v-258h-142zM107 645h117l40 -65l39 65h116l-76 -118h-160z" />
    <glyph glyph-name="Omacron" unicode="&#x14c;" horiz-adv-x="735" 
d="M33 325q0 145 92 239t236 94t235 -94t91 -239t-91 -239t-235 -94t-236 94t-92 239zM180 325q0 -82 51 -134q50 -52 130 -52t129.5 52t49.5 134t-49.5 134t-129.5 52t-130.5 -52t-50.5 -134zM259 796h204v-90h-204v90z" />
    <glyph glyph-name="omacron" unicode="&#x14d;" horiz-adv-x="544" 
d="M24 230q0 105 67 172.5t172 67.5q104 0 171 -67.5t67 -172.5q0 -103 -67 -171q-67 -69 -171 -69t-171.5 68.5t-67.5 171.5zM164 230q0 -45 28 -74q27 -30 71 -30t70.5 29.5t26.5 74.5t-26.5 74t-70.5 29t-71.5 -29t-27.5 -74zM365 613v-90h-204v90h204z" />
    <glyph glyph-name="Ohungarumlaut" unicode="&#x150;" horiz-adv-x="735" 
d="M125 564q92 94 236 94t235 -94t91 -239t-91 -239t-235 -94t-236 94t-92 239t92 239zM231 191q50 -52 130 -52t129.5 52t49.5 134t-49.5 134t-129.5 52t-130.5 -52t-50.5 -134t51 -134zM453 828h121l-80 -118h-99zM202 710l58 118h121l-80 -118h-99z" />
    <glyph glyph-name="ohungarumlaut" unicode="&#x151;" horiz-adv-x="544" 
d="M24 230q0 105 67 172.5t172 67.5q104 0 171 -67.5t67 -172.5q0 -103 -67 -171q-67 -69 -171 -69t-171.5 68.5t-67.5 171.5zM192 156q27 -30 71 -30t70.5 29.5t26.5 74.5t-26.5 74t-70.5 29t-71.5 -29t-27.5 -74t28 -74zM297 527l58 118h121l-80 -118h-99zM104 527l58 118
h121l-80 -118h-99z" />
    <glyph glyph-name="OE" unicode="&#x152;" horiz-adv-x="996" 
d="M365 -8q-145 0 -238.5 94t-93.5 239t93 239t239 94q98 0 176 -46v38h397v-134h-250v-127h229v-134h-229v-121h250v-134h-397v40q-76 -48 -176 -48zM365 139q80 0 127.5 52t47.5 134t-47.5 134t-127.5 52q-86 0 -135.5 -51.5t-49.5 -134.5t49.5 -134.5t135.5 -51.5z" />
    <glyph glyph-name="oe" unicode="&#x153;" horiz-adv-x="843" 
d="M583 -10q-101 0 -167 64q-64 -62 -161 -62q-102 0 -166.5 67.5t-64.5 170.5t64.5 170t166.5 67q96 0 160 -61q65 63 163 63q102 0 161.5 -67t59.5 -172v-38h-314q10 -38 36 -59.5t62 -21.5q65 0 97 43l98 -63q-31 -47 -82 -74t-113 -27zM487 281h179q-21 76 -88 76
q-70 0 -91 -76zM255 132q44 0 67 26t23 72t-23 71.5t-67 25.5t-67.5 -25.5t-23.5 -71.5t23.5 -72t67.5 -26z" />
    <glyph glyph-name="Racute" unicode="&#x154;" horiz-adv-x="617" 
d="M358 650q79 0 140.5 -58t61.5 -161q0 -76 -35 -128t-90 -75l139 -228h-170l-129 212h-85v-212h-147v650h315zM190 507v-153h143q33 0 56.5 20.5t23.5 56.5t-23.5 56t-56.5 20h-143zM207 710l56 118h121l-60 -118h-117z" />
    <glyph glyph-name="racute" unicode="&#x155;" horiz-adv-x="380" 
d="M185 460v-83q55 88 162 90v-134q-162 0 -162 -135v-198h-142v460h142zM146 527l56 118h121l-60 -118h-117z" />
    <glyph glyph-name="uni0156" unicode="&#x156;" horiz-adv-x="617" 
d="M43 650h315q79 0 140.5 -58t61.5 -161q0 -76 -35 -128t-90 -75l139 -228h-170l-129 212h-85v-212h-147v650zM190 354h143q33 0 56.5 20.5t23.5 56.5t-23.5 56t-56.5 20h-143v-153zM231 -50h117l-63 -115h-113z" />
    <glyph glyph-name="uni0157" unicode="&#x157;" horiz-adv-x="380" 
d="M43 0v460h142v-83q55 88 162 90v-134q-162 0 -162 -135v-198h-142zM3 -165l59 115h117l-63 -115h-113z" />
    <glyph glyph-name="Rcaron" unicode="&#x158;" horiz-adv-x="617" 
d="M43 650h315q79 0 140.5 -58t61.5 -161q0 -76 -35 -128t-90 -75l139 -228h-170l-129 212h-85v-212h-147v650zM190 354h143q33 0 56.5 20.5t23.5 56.5t-23.5 56t-56.5 20h-143v-153zM227 828l40 -65l39 65h116l-76 -118h-160l-76 118h117z" />
    <glyph glyph-name="rcaron" unicode="&#x159;" horiz-adv-x="380" 
d="M43 460h142v-83q55 88 162 90v-134q-162 0 -162 -135v-198h-142v460zM166 645l40 -65l39 65h116l-76 -118h-160l-76 118h117z" />
    <glyph glyph-name="Sacute" unicode="&#x15a;" horiz-adv-x="612" 
d="M141 234q16 -30 70 -64.5t113 -34.5q81 0 81 54q0 12 -9.5 22.5t-27 18.5t-33.5 13.5t-38 12t-32 10.5q-2 1 -31.5 10.5t-46 16t-46.5 23.5t-47 35t-30.5 47.5t-13.5 64.5q0 101 74.5 150t182.5 49q90 0 163.5 -44t94.5 -99l-116 -77q-15 25 -61 49t-99 24q-70 0 -70 -45
q0 -13 9 -23.5t26 -19t31.5 -13.5t37.5 -12t32 -10q1 -1 25.5 -9t38 -14t39.5 -18t42.5 -26t34 -33t26.5 -43.5t9 -52.5q0 -100 -71.5 -154t-191.5 -54q-107 0 -182.5 48t-101.5 113zM249 710l56 118h121l-60 -118h-117z" />
    <glyph glyph-name="sacute" unicode="&#x15b;" horiz-adv-x="451" 
d="M111 164q7 -19 43 -42.5t72 -23.5q53 0 53 32q0 8 -5 15t-15.5 12t-19.5 8.5t-23.5 8t-21.5 6.5q-1 1 -15.5 5.5t-23 8t-25.5 11t-28 15t-24.5 19t-21.5 24t-14 29t-6 35.5q0 71 54 107.5t134 36.5q72 0 123 -29t72 -70l-92 -61q-12 17 -44.5 34t-63.5 17q-45 0 -45 -28
q0 -9 5 -16t15.5 -12.5t19 -9t23.5 -8t21 -6.5q1 0 12.5 -4t17 -6t19.5 -8t22 -10.5t21 -12t21 -15t18 -18t15 -21t9 -24t4 -28.5q0 -72 -51 -110.5t-141 -38.5q-81 0 -136.5 33t-74.5 79zM165 527l56 118h121l-60 -118h-117z" />
    <glyph glyph-name="Scedilla" unicode="&#x15e;" horiz-adv-x="612" 
d="M141 234q16 -30 70 -64.5t113 -34.5q81 0 81 54q0 12 -9.5 22.5t-27 18.5t-33.5 13.5t-38 12t-32 10.5q-2 1 -31.5 10.5t-46 16t-46.5 23.5t-47 35t-30.5 47.5t-13.5 64.5q0 101 74.5 150t182.5 49q90 0 163.5 -44t94.5 -99l-116 -77q-15 25 -61 49t-99 24q-70 0 -70 -45
q0 -13 9 -23.5t26 -19t31.5 -13.5t37.5 -12t32 -10q1 -1 25.5 -9t38 -14t39.5 -18t42.5 -26t34 -33t26.5 -43.5t9 -52.5q0 -89 -56.5 -141.5t-154.5 -63.5l-21 -36q72 -13 72 -71q0 -82 -118 -82q-42 0 -65 10v67q18 -13 65 -13q38 0 38 18t-42 18q-29 0 -43 -7l-1 54l26 41
q-94 8 -159 54t-88 105z" />
    <glyph glyph-name="scedilla" unicode="&#x15f;" horiz-adv-x="451" 
d="M14 98l97 66q7 -19 43 -42.5t72 -23.5q53 0 53 32q0 8 -5 15t-15.5 12t-19.5 8.5t-23.5 8t-21.5 6.5q-1 1 -15.5 5.5t-23 8t-25.5 11t-28 15t-24.5 19t-21.5 24t-14 29t-6 35.5q0 71 54 107.5t134 36.5q72 0 123 -29t72 -70l-92 -61q-12 17 -44.5 34t-63.5 17
q-45 0 -45 -28q0 -9 5 -16t15.5 -12.5t19 -9t23.5 -8t21 -6.5q1 0 12.5 -4t17 -6t19.5 -8t22 -10.5t21 -12t21 -15t18 -18t15 -21t9 -24t4 -28.5q0 -63 -38 -100t-108 -46l-19 -32q72 -13 72 -71q0 -82 -118 -82q-42 0 -65 10v67q18 -13 65 -13q38 0 38 18t-42 18
q-29 0 -43 -7l-1 54l24 38q-64 8 -108 39t-60 70z" />
    <glyph glyph-name="Scaron" unicode="&#x160;" horiz-adv-x="612" 
d="M141 234q16 -30 70 -64.5t113 -34.5q81 0 81 54q0 12 -9.5 22.5t-27 18.5t-33.5 13.5t-38 12t-32 10.5q-2 1 -31.5 10.5t-46 16t-46.5 23.5t-47 35t-30.5 47.5t-13.5 64.5q0 101 74.5 150t182.5 49q90 0 163.5 -44t94.5 -99l-116 -77q-15 25 -61 49t-99 24q-70 0 -70 -45
q0 -13 9 -23.5t26 -19t31.5 -13.5t37.5 -12t32 -10q1 -1 25.5 -9t38 -14t39.5 -18t42.5 -26t34 -33t26.5 -43.5t9 -52.5q0 -100 -71.5 -154t-191.5 -54q-107 0 -182.5 48t-101.5 113zM152 828h117l40 -65l39 65h116l-76 -118h-160z" />
    <glyph glyph-name="scaron" unicode="&#x161;" horiz-adv-x="451" 
d="M111 164q7 -19 43 -42.5t72 -23.5q53 0 53 32q0 8 -5 15t-15.5 12t-19.5 8.5t-23.5 8t-21.5 6.5q-1 1 -15.5 5.5t-23 8t-25.5 11t-28 15t-24.5 19t-21.5 24t-14 29t-6 35.5q0 71 54 107.5t134 36.5q72 0 123 -29t72 -70l-92 -61q-12 17 -44.5 34t-63.5 17q-45 0 -45 -28
q0 -9 5 -16t15.5 -12.5t19 -9t23.5 -8t21 -6.5q1 0 12.5 -4t17 -6t19.5 -8t22 -10.5t21 -12t21 -15t18 -18t15 -21t9 -24t4 -28.5q0 -72 -51 -110.5t-141 -38.5q-81 0 -136.5 33t-74.5 79zM185 645l40 -65l39 65h116l-76 -118h-160l-76 118h117z" />
    <glyph glyph-name="uni0162" unicode="&#x162;" horiz-adv-x="591" 
d="M548 650v-134h-189v-516h-27l-22 -38q72 -13 72 -71q0 -82 -118 -82q-42 0 -65 10v67q18 -13 65 -13q38 0 38 18t-42 18q-29 0 -43 -7l-1 54l28 44h-32v516h-189v134h525z" />
    <glyph glyph-name="uni0163" unicode="&#x163;" horiz-adv-x="349" 
d="M13 460h58v142h143v-142h94v-107h-94v-189q0 -20 5 -32t16 -16t17.5 -5t21.5 -1h29v-110h-38l-21 -35q72 -13 72 -71q0 -82 -118 -82q-42 0 -65 10v67q18 -13 65 -13q38 0 38 18t-42 18q-29 0 -43 -7l-1 54l28 44q-107 16 -107 137v213h-58v107z" />
    <glyph glyph-name="Tcaron" unicode="&#x164;" horiz-adv-x="591" 
d="M23 650h525v-134h-189v-516h-147v516h-189v134zM129 828h117l40 -65l39 65h116l-76 -118h-160z" />
    <glyph glyph-name="tcaron" unicode="&#x165;" horiz-adv-x="349" 
d="M13 353v107h58v142h143v-142h94v-107h-94v-189q0 -20 5 -32t16 -16t17.5 -5t21.5 -1h29v-110h-89q-143 0 -143 140v213h-58zM-18 768h117l40 -65l39 65h116l-76 -118h-160z" />
    <glyph glyph-name="Tbar" unicode="&#x166;" horiz-adv-x="593" 
d="M212 0v210h-103v134h103v172h-189v134h525v-134h-189v-172h103v-134h-103v-210h-147z" />
    <glyph glyph-name="Utilde" unicode="&#x168;" horiz-adv-x="614" 
d="M190 650v-403q0 -59 30.5 -85.5t76.5 -26.5t76.5 26.5t30.5 85.5v403h148v-419q0 -100 -68 -169q-68 -70 -187 -70t-186.5 69.5t-67.5 169.5v419h147zM155 796q28 35 81 35q46 0 77 -35q22 -24 42 -24q31 0 33 46h81q0 -56 -29 -91.5t-85 -35.5q-48 0 -79 35
q-22 24 -37 24q-17 0 -24 -15t-7 -31h-81q0 56 28 92z" />
    <glyph glyph-name="utilde" unicode="&#x169;" horiz-adv-x="548" 
d="M43 179v281h142v-259q0 -51 26 -70t54 -19q17 0 32 5t30.5 26.5t15.5 57.5v259h143v-460h-143v37q-46 -45 -122 -45q-32 0 -61.5 9.5t-57 29.5t-43.5 58t-16 90zM96 521q0 56 28 91.5t81 35.5q46 0 77 -35q22 -24 42 -24q31 0 33 46h81q0 -56 -29 -91.5t-85 -35.5
q-48 0 -79 35q-22 24 -37 24q-17 0 -24 -15t-7 -31h-81z" />
    <glyph glyph-name="Umacron" unicode="&#x16a;" horiz-adv-x="614" 
d="M43 650h147v-403q0 -59 30.5 -85.5t76.5 -26.5t76.5 26.5t30.5 85.5v403h148v-419q0 -100 -68 -169q-68 -70 -187 -70t-186.5 69.5t-67.5 169.5v419zM196 796h204v-90h-204v90z" />
    <glyph glyph-name="umacron" unicode="&#x16b;" horiz-adv-x="548" 
d="M43 179v281h142v-259q0 -51 26 -70t54 -19q17 0 32 5t30.5 26.5t15.5 57.5v259h143v-460h-143v37q-46 -45 -122 -45q-32 0 -61.5 9.5t-57 29.5t-43.5 58t-16 90zM165 523v90h204v-90h-204z" />
    <glyph glyph-name="Uring" unicode="&#x16e;" horiz-adv-x="614" 
d="M43 650h147v-403q0 -59 30.5 -85.5t76.5 -26.5t76.5 26.5t30.5 85.5v403h148v-419q0 -100 -68 -169q-68 -70 -187 -70t-186.5 69.5t-67.5 169.5v419zM224 857q28 26 74 26t74 -26.5t28 -69.5q0 -41 -28 -68t-74 -27q-45 0 -73.5 27.5t-28.5 67.5q0 43 28 70zM263 787
q0 -34 35 -34q36 0 36 34q0 35 -36 35q-35 0 -35 -35z" />
    <glyph glyph-name="uring" unicode="&#x16f;" horiz-adv-x="548" 
d="M43 460h142v-259q0 -51 26 -70t54 -19q17 0 32 5t30.5 26.5t15.5 57.5v259h143v-460h-143v37q-46 -45 -122 -45q-32 0 -61.5 9.5t-57 29.5t-43.5 58t-16 90v281zM193 674q28 26 74 26t74 -26.5t28 -69.5q0 -41 -28 -68t-74 -27q-45 0 -73.5 27.5t-28.5 67.5q0 43 28 70z
M267 570q36 0 36 34q0 35 -36 35q-35 0 -35 -35q0 -34 35 -34z" />
    <glyph glyph-name="Uhungarumlaut" unicode="&#x170;" horiz-adv-x="614" 
d="M43 650h147v-403q0 -59 30.5 -85.5t76.5 -26.5t76.5 26.5t30.5 85.5v403h148v-419q0 -100 -68 -169q-68 -70 -187 -70t-186.5 69.5t-67.5 169.5v419zM332 710l58 118h121l-80 -118h-99zM197 828h121l-80 -118h-99z" />
    <glyph glyph-name="uhungarumlaut" unicode="&#x171;" horiz-adv-x="548" 
d="M43 460h142v-259q0 -51 26 -70t54 -19q17 0 32 5t30.5 26.5t15.5 57.5v259h143v-460h-143v37q-46 -45 -122 -45q-32 0 -61.5 9.5t-57 29.5t-43.5 58t-16 90v281zM359 645h121l-80 -118h-99zM166 645h121l-80 -118h-99z" />
    <glyph glyph-name="Uogonek" unicode="&#x172;" horiz-adv-x="614" 
d="M43 650h147v-403q0 -59 30.5 -85.5t76.5 -26.5t76.5 26.5t30.5 85.5v403h148v-419q0 -91 -56.5 -157.5t-156.5 -78.5q-41 -31 -41 -60q0 -9 6 -15t15 -7t12 -1q15 0 39 9v-81q-26 -7 -51 -7q-30 0 -68 15t-38 65q0 47 45 81q-101 12 -158 79t-57 158v419z" />
    <glyph glyph-name="uogonek" unicode="&#x173;" horiz-adv-x="548" 
d="M43 179v281h142v-259q0 -51 26 -70t54 -19q17 0 32 5t30.5 26.5t15.5 57.5v259h143v-460h-21q-38 -29 -38 -57q0 -9 6 -15t15 -7t12 -1q15 0 39 9v-81q-26 -7 -51 -7q-30 0 -68 15t-38 65q0 45 42 79h-41v37q-46 -45 -122 -45q-32 0 -61.5 9.5t-57 29.5t-43.5 58t-16 90z
" />
    <glyph glyph-name="Wcircumflex" unicode="&#x174;" horiz-adv-x="952" 
d="M13 650h156l126 -383l126 383h108l123 -364l121 364h156l-217 -650h-126l-115 346l-115 -346h-126zM391 828h160l76 -118h-116l-39 69l-40 -69h-117z" />
    <glyph glyph-name="wcircumflex" unicode="&#x175;" horiz-adv-x="771" 
d="M10 460h147l78 -259l91 259h107l91 -259l78 259h147l-149 -460h-138l-84 246l-84 -246h-138zM222 527l76 118h160l76 -118h-116l-39 69l-40 -69h-117z" />
    <glyph glyph-name="Ycircumflex" unicode="&#x176;" horiz-adv-x="637" 
d="M7 650h169l135 -224l135 224h168l-229 -376v-274h-147v271zM155 710l76 118h160l76 -118h-116l-39 69l-40 -69h-117z" />
    <glyph glyph-name="ycircumflex" unicode="&#x177;" horiz-adv-x="530" 
d="M6 460h147l103 -263l105 263h147l-256 -644h-138l73 185zM176 645h160l76 -118h-116l-39 69l-40 -69h-117z" />
    <glyph glyph-name="Ydieresis" unicode="&#x178;" horiz-adv-x="637" 
d="M7 650h169l135 -224l135 224h168l-229 -376v-274h-147v271zM172 803q19 16 44 16t44.5 -16.5t19.5 -44.5q0 -29 -20 -47t-44 -18t-44 18t-20 47q0 28 20 45zM344 758q0 28 19.5 44.5t44.5 16.5q24 0 43.5 -16.5t19.5 -44.5q0 -29 -19.5 -47t-43.5 -18q-25 0 -44.5 18
t-19.5 47z" />
    <glyph glyph-name="Zacute" unicode="&#x179;" horiz-adv-x="543" 
d="M213 710l56 118h121l-60 -118h-117zM33 0v123l282 392h-276v135l462 1v-124l-287 -392l281 -1v-134h-462z" />
    <glyph glyph-name="zacute" unicode="&#x17a;" horiz-adv-x="422" 
d="M23 106l177 238h-177v116h356v-106l-177 -238h177v-116h-356v106zM198 645h121l-60 -118h-117z" />
    <glyph glyph-name="Zdotaccent" unicode="&#x17b;" horiz-adv-x="543" 
d="M33 123l282 392h-276v135l462 1v-124l-287 -392l281 -1v-134h-462v123zM208 758q0 28 19.5 44.5t44.5 16.5t44.5 -16.5t19.5 -44.5q0 -29 -20 -47t-44 -18t-44 18t-20 47z" />
    <glyph glyph-name="zdotaccent" unicode="&#x17c;" horiz-adv-x="422" 
d="M23 106l177 238h-177v116h356v-106l-177 -238h177v-116h-356v106zM137 575q0 28 19.5 44.5t44.5 16.5t44.5 -16.5t19.5 -44.5q0 -29 -20 -47t-44 -18t-44 18t-20 47z" />
    <glyph glyph-name="Zcaron" unicode="&#x17d;" horiz-adv-x="543" 
d="M33 123l282 392h-276v135l462 1v-124l-287 -392l281 -1v-134h-462v123zM116 828h117l40 -65l39 65h116l-76 -118h-160z" />
    <glyph glyph-name="zcaron" unicode="&#x17e;" horiz-adv-x="422" 
d="M23 106l177 238h-177v116h356v-106l-177 -238h177v-116h-356v106zM162 645l40 -65l39 65h116l-76 -118h-160l-76 118h117z" />
    <glyph glyph-name="uni01CD" unicode="&#x1cd;" horiz-adv-x="671" 
d="M275 650h111l263 -650h-156l-35 90h-254l-35 -90h-156zM176 828h117l40 -65l39 65h116l-76 -118h-160zM406 224l-76 192l-74 -192h150z" />
    <glyph glyph-name="uni01CE" unicode="&#x1ce;" 
d="M85 401q61 66 155 66q72 0 119 -45v38h142v-460h-142v38q-46 -46 -119 -46q-93 0 -154.5 67.5t-61.5 170.5q0 104 61 171zM162 230q0 -46 28 -75q27 -29 71 -29t71 29t27 75t-27 74.5t-71 28.5q-45 0 -72 -29t-27 -74zM256 645l40 -65l39 65h116l-76 -118h-160l-76 118
h117z" />
    <glyph glyph-name="uni01CF" unicode="&#x1cf;" horiz-adv-x="252" 
d="M43 650h147v-650h-147v650zM-41 828h117l40 -65l39 65h116l-76 -118h-160z" />
    <glyph glyph-name="uni01D0" unicode="&#x1d0;" horiz-adv-x="251" 
d="M44 460h143l-1 -460h-142v460zM-41 645h117l40 -65l39 65h116l-76 -118h-160z" />
    <glyph glyph-name="uni01D1" unicode="&#x1d1;" horiz-adv-x="735" 
d="M125 564q92 94 236 94t235 -94t91 -239t-91 -239t-235 -94t-236 94t-92 239t92 239zM231 191q50 -52 130 -52t129.5 52t49.5 134t-49.5 134t-129.5 52t-130.5 -52t-50.5 -134t51 -134zM322 828l40 -65l39 65h116l-76 -118h-160l-76 118h117z" />
    <glyph glyph-name="uni01D2" unicode="&#x1d2;" horiz-adv-x="544" 
d="M24 230q0 105 67 172.5t172 67.5q104 0 171 -67.5t67 -172.5q0 -103 -67 -171q-67 -69 -171 -69t-171.5 68.5t-67.5 171.5zM192 156q27 -30 71 -30t70.5 29.5t26.5 74.5t-26.5 74t-70.5 29t-71.5 -29t-27.5 -74t28 -74zM224 645l40 -65l39 65h116l-76 -118h-160l-76 118
h117z" />
    <glyph glyph-name="uni01D3" unicode="&#x1d3;" horiz-adv-x="614" 
d="M43 231v419h147v-403q0 -59 30.5 -85.5t76.5 -26.5t76.5 26.5t30.5 85.5v403h148v-419q0 -100 -68 -169q-68 -70 -187 -70t-186.5 69.5t-67.5 169.5zM142 828h117l40 -65l39 65h116l-76 -118h-160z" />
    <glyph glyph-name="uni01D4" unicode="&#x1d4;" horiz-adv-x="548" 
d="M185 460v-259q0 -51 26 -70t54 -19q17 0 32 5t30.5 26.5t15.5 57.5v259h143v-460h-143v37q-46 -45 -122 -45q-32 0 -61.5 9.5t-57 29.5t-43.5 58t-16 90v281h142zM228 645l40 -65l39 65h116l-76 -118h-160l-76 118h117z" />
    <glyph glyph-name="Gcaron" unicode="&#x1e6;" horiz-adv-x="725" 
d="M125 564q92 94 236 94q85 0 152.5 -34.5t110.5 -95.5l-119 -88q-52 71 -144 71q-80 0 -130.5 -52t-50.5 -134t50.5 -134t130.5 -52q50 0 91 26.5t52 76.5h-152v134h321v-66q-5 -141 -89 -229.5t-223 -88.5q-144 0 -236 94t-92 239t92 239zM322 828l40 -65l39 65h116
l-76 -118h-160l-76 118h117z" />
    <glyph glyph-name="gcaron" unicode="&#x1e7;" 
d="M85 400q61 67 154 67q74 0 120 -46v39h142v-428q0 -103 -64.5 -166.5t-182.5 -63.5q-126 0 -197 84l93 78q41 -42 104 -42q14 0 29 4t33.5 15t30.5 34.5t12 56.5v7q-47 -47 -120 -47q-93 0 -154 67.5t-61 170.5t61 170zM189 155q27 -29 71 -29t71.5 29t27.5 75
q0 45 -27 74t-72 29q-44 0 -71 -28.5t-27 -74.5t27 -75zM115 645h117l40 -65l39 65h116l-76 -118h-160z" />
    <glyph glyph-name="uni0218" unicode="&#x218;" horiz-adv-x="612" 
d="M141 234q16 -30 70 -64.5t113 -34.5q81 0 81 54q0 12 -9.5 22.5t-27 18.5t-33.5 13.5t-38 12t-32 10.5q-2 1 -31.5 10.5t-46 16t-46.5 23.5t-47 35t-30.5 47.5t-13.5 64.5q0 101 74.5 150t182.5 49q90 0 163.5 -44t94.5 -99l-116 -77q-15 25 -61 49t-99 24q-70 0 -70 -45
q0 -13 9 -23.5t26 -19t31.5 -13.5t37.5 -12t32 -10q1 -1 25.5 -9t38 -14t39.5 -18t42.5 -26t34 -33t26.5 -43.5t9 -52.5q0 -100 -71.5 -154t-191.5 -54q-107 0 -182.5 48t-101.5 113zM260 -57h117l-63 -115h-113z" />
    <glyph glyph-name="uni0219" unicode="&#x219;" horiz-adv-x="451" 
d="M111 164q7 -19 43 -42.5t72 -23.5q53 0 53 32q0 8 -5 15t-15.5 12t-19.5 8.5t-23.5 8t-21.5 6.5q-1 1 -15.5 5.5t-23 8t-25.5 11t-28 15t-24.5 19t-21.5 24t-14 29t-6 35.5q0 71 54 107.5t134 36.5q72 0 123 -29t72 -70l-92 -61q-12 17 -44.5 34t-63.5 17q-45 0 -45 -28
q0 -9 5 -16t15.5 -12.5t19 -9t23.5 -8t21 -6.5q1 0 12.5 -4t17 -6t19.5 -8t22 -10.5t21 -12t21 -15t18 -18t15 -21t9 -24t4 -28.5q0 -72 -51 -110.5t-141 -38.5q-81 0 -136.5 33t-74.5 79zM174 -55h117l-63 -115h-113z" />
    <glyph glyph-name="uni021A" unicode="&#x21a;" horiz-adv-x="591" 
d="M23 650h525v-134h-189v-516h-147v516h-189v134zM173 -165l59 115h117l-63 -115h-113z" />
    <glyph glyph-name="uni021B" unicode="&#x21b;" horiz-adv-x="349" 
d="M71 460v142h143v-142h94v-107h-94v-189q0 -20 5 -32t16 -16t17.5 -5t21.5 -1h29v-110h-89q-143 0 -143 140v213h-58v107h58zM166 -47h117l-63 -115h-113z" />
    <glyph glyph-name="circumflex" unicode="&#x2c6;" horiz-adv-x="352" 
d="M20 532l76 118h160l76 -118h-116l-39 69l-40 -69h-117z" />
    <glyph glyph-name="caron" unicode="&#x2c7;" horiz-adv-x="352" 
d="M96 532l-76 118h117l40 -65l39 65h116l-76 -118h-160z" />
    <glyph glyph-name="breve" unicode="&#x2d8;" horiz-adv-x="281" 
d="M141 532q-54 0 -87.5 29t-33.5 86v3h81v-3q0 -20 10.5 -31.5t29.5 -11.5q39 0 39 43v3h81v-3q0 -57 -33 -86t-87 -29z" />
    <glyph glyph-name="dotaccent" unicode="&#x2d9;" horiz-adv-x="168" 
d="M84 569q-24 0 -44 18t-20 47q0 28 19.5 44.5t44.5 16.5t44.5 -16.5t19.5 -44.5q0 -29 -20 -47t-44 -18z" />
    <glyph glyph-name="ring" unicode="&#x2da;" horiz-adv-x="244" 
d="M123 489q-45 0 -74 28t-29 68q0 43 28.5 70t74.5 27t74 -27t28 -70q0 -41 -28 -68.5t-74 -27.5zM123 550q20 0 28.5 11t8.5 24q0 8 -2.5 15t-11.5 14t-23 7q-36 0 -36 -36q0 -35 36 -35z" />
    <glyph glyph-name="ogonek" unicode="&#x2db;" horiz-adv-x="190" 
d="M170 -165q-60 -15 -105 4t-45 69q0 32 18 57t39 35h73q-1 0 -6 -4t-8.5 -7t-9.5 -8t-10.5 -10.5t-8.5 -12t-6.5 -14t-2.5 -14.5q0 -9 6 -15t22 -8t44 9v-81z" />
    <glyph glyph-name="tilde" unicode="&#x2dc;" horiz-adv-x="382" 
d="M248 559q-48 0 -79 35q-22 24 -37 24q-17 0 -24 -15t-7 -31h-81q0 56 28 91.5t81 35.5q46 0 77 -35q22 -24 42 -24q31 0 33 46h81q0 -56 -29 -91.5t-85 -35.5z" />
    <glyph glyph-name="hungarumlaut" unicode="&#x2dd;" horiz-adv-x="412" 
d="M20 532l58 118h121l-80 -118h-99zM213 532l58 118h121l-80 -118h-99z" />
    <glyph glyph-name="gravecomb" unicode="&#x300;" horiz-adv-x="0" 
d="M-137 532l-60 118h121l56 -118h-117z" />
    <glyph glyph-name="acutecomb" unicode="&#x301;" horiz-adv-x="0" 
d="M-197 532l56 118h121l-60 -118h-117z" />
    <glyph glyph-name="uni0302" unicode="&#x302;" horiz-adv-x="0" 
d="M-256 650h160l76 -118h-116l-39 69l-40 -69h-117z" />
    <glyph glyph-name="tildecomb" unicode="&#x303;" horiz-adv-x="0" 
d="M-362 572q0 56 28 91.5t81 35.5q46 0 77 -35q22 -24 42 -24q31 0 33 46h81q0 -56 -29 -91.5t-85 -35.5q-48 0 -79 35q-22 24 -37 24q-17 0 -24 -15t-7 -31h-81z" />
    <glyph glyph-name="uni0304" unicode="&#x304;" horiz-adv-x="0" 
d="M-224 560v90h204v-90h-204z" />
    <glyph glyph-name="uni0306" unicode="&#x306;" horiz-adv-x="0" 
d="M-278 650h81v-3q0 -18 13.5 -31.5t35.5 -13.5t34.5 13.5t12.5 31.5v3h81v-3q0 -54 -35 -85.5t-93 -31.5q-59 0 -94.5 31.5t-35.5 85.5v3z" />
    <glyph glyph-name="uni0307" unicode="&#x307;" horiz-adv-x="0" 
d="M-148 634q0 28 19.5 44.5t44.5 16.5t44.5 -16.5t19.5 -44.5q0 -29 -20 -47t-44 -18t-44 18t-20 47z" />
    <glyph glyph-name="uni0308" unicode="&#x308;" horiz-adv-x="0" 
d="M-347 634q0 28 19.5 44.5t44.5 16.5t44.5 -16.5t19.5 -44.5q0 -29 -20 -47t-44 -18t-44 18t-20 47zM-155 634q0 28 19.5 44.5t44.5 16.5q24 0 43.5 -16.5t19.5 -44.5q0 -29 -19.5 -47t-43.5 -18q-25 0 -44.5 18t-19.5 47z" />
    <glyph glyph-name="uni030A" unicode="&#x30a;" horiz-adv-x="0" 
d="M-196 656q28 26 74 26t74 -26.5t28 -69.5q0 -41 -28 -68t-74 -27q-45 0 -73.5 27.5t-28.5 67.5q0 43 28 70zM-157 586q0 -34 35 -34q36 0 36 34q0 35 -36 35q-35 0 -35 -35z" />
    <glyph glyph-name="uni030B" unicode="&#x30b;" horiz-adv-x="0" 
d="M-141 650h121l-80 -118h-99zM-392 532l58 118h121l-80 -118h-99z" />
    <glyph glyph-name="uni030C" unicode="&#x30c;" horiz-adv-x="0" 
d="M-332 650h117l40 -65l39 65h116l-76 -118h-160z" />
    <glyph glyph-name="uni0312" unicode="&#x312;" horiz-adv-x="0" 
d="M-152 607q0 44 65 96h67q-31 -24 -43 -43q39 -12 39 -53q0 -24 -16 -42t-46 -18t-48 18t-18 42z" />
    <glyph glyph-name="dotbelowcomb" unicode="&#x323;" horiz-adv-x="0" 
d="M-148 -61q0 28 19.5 44.5t44.5 16.5t44.5 -16.5t19.5 -44.5q0 -29 -20 -47t-44 -18t-44 18t-20 47z" />
    <glyph glyph-name="uni0326" unicode="&#x326;" horiz-adv-x="0" 
d="M-196 -115l59 115h117l-63 -115h-113z" />
    <glyph glyph-name="uni0327" unicode="&#x327;" horiz-adv-x="0" 
d="M-138 -133q38 0 38 18t-42 18q-29 0 -43 -7l-1 54l32 50h88l-26 -44q72 -13 72 -71q0 -82 -118 -82q-42 0 -65 10v67q18 -13 65 -13z" />
    <glyph glyph-name="uni0328" unicode="&#x328;" horiz-adv-x="0" 
d="M-158 -36q20 25 42 36h80l-9 -6q-9 -6 -15 -11.5t-14.5 -14t-13 -18.5t-4.5 -20q0 -9 6 -15t15 -7t12 -1q15 0 39 9v-81q-26 -7 -51 -7q-30 0 -68 15t-38 65q0 32 19 56z" />
    <glyph glyph-name="uni0331" unicode="&#x331;" horiz-adv-x="0" 
d="M-213 -89v89h193v-89h-193z" />
    <glyph glyph-name="Gamma" unicode="&#x393;" horiz-adv-x="467" 
d="M43 0v650h362v-134h-220v-516h-142z" />
    <glyph glyph-name="uni0394" unicode="&#x394;" horiz-adv-x="651" 
d="M43 0v125l212 525h121l212 -525v-125h-545zM194 125h241l-121 304z" />
    <glyph glyph-name="Sigma" unicode="&#x3a3;" horiz-adv-x="587" 
d="M43 0v103l233 219l-233 229v99h481v-134h-246l191 -194l-189 -188h244v-134h-481z" />
    <glyph glyph-name="Phi" unicode="&#x3a6;" horiz-adv-x="769" 
d="M317 -7v73q-127 12 -200.5 79t-73.5 181t73.5 180.5t200.5 78.5v72h116v-72q128 -12 201 -78.5t73 -180.5t-73 -181t-201 -79v-73h-116zM433 209q131 17 131 117q0 99 -131 116v-233zM317 209v232q-132 -16 -132 -115t132 -117z" />
    <glyph glyph-name="Psi" unicode="&#x3a8;" horiz-adv-x="745" 
d="M305 0v155q-115 15 -188.5 91t-73.5 208v196h142v-196q0 -140 120 -164v360h116v-360q119 23 119 164v196h143v-197q0 -132 -73.5 -207.5t-188.5 -90.5v-155h-116z" />
    <glyph glyph-name="uni03A9" unicode="&#x3a9;" horiz-adv-x="786" 
d="M43 4v134h80q-63 81 -63 187q0 146 90 239.5t234 93.5t233 -93.5t89 -239.5q0 -105 -62 -187h80v-134h-289v135q128 54 128 196q0 28 -9 57t-28 57.5t-56 47t-86 18.5t-86 -18.5t-56.5 -47t-29 -57.5t-9.5 -57q0 -143 127 -194v-137h-287z" />
    <glyph glyph-name="uni1E04" unicode="&#x1e04;" horiz-adv-x="604" 
d="M43 650h304q80 0 136 -50t56 -137q0 -85 -57 -126q81 -47 81 -146q0 -87 -60 -139t-140 -52h-320v650zM190 273v-139h150q32 0 51.5 20t19.5 50q0 29 -19.5 49t-51.5 20h-150zM322 394q30 0 47.5 16.5t17.5 44.5q0 29 -17.5 45t-47.5 16h-132v-122h132zM204 -104
q0 28 19.5 44.5t44.5 16.5t44.5 -16.5t19.5 -44.5q0 -29 -20 -47t-44 -18t-44 18t-20 47z" />
    <glyph glyph-name="uni1E05" unicode="&#x1e05;" 
d="M43 650h142v-228q47 45 119 45q94 0 155 -66.5t61 -170.5q0 -103 -61.5 -170.5t-154.5 -67.5q-73 0 -119 46v-38h-142v650zM185 230q0 -46 27 -75t71 -29t71.5 29t27.5 75q0 45 -27 74t-72 29q-44 0 -71 -28.5t-27 -74.5zM230 -112q0 28 19.5 44.5t44.5 16.5t44.5 -16.5
t19.5 -44.5q0 -29 -20 -47t-44 -18t-44 18t-20 47z" />
    <glyph glyph-name="uni1E0C" unicode="&#x1e0c;" horiz-adv-x="657" 
d="M43 650h247q142 0 230.5 -90t88.5 -235t-88.5 -235t-230.5 -90h-247v650zM190 143h100q22 0 47 7t55.5 24t50 56t19.5 95q0 45 -14 79.5t-33.5 53t-45 30.5t-44.5 15.5t-35 3.5h-100v-364zM197 -104q0 28 19.5 44.5t44.5 16.5t44.5 -16.5t19.5 -44.5q0 -29 -20 -47
t-44 -18t-44 18t-20 47z" />
    <glyph glyph-name="uni1E0D" unicode="&#x1e0d;" 
d="M85 401q61 66 155 66q72 0 119 -45v228h142v-650h-142v38q-46 -46 -119 -46q-93 0 -154.5 67.5t-61.5 170.5q0 104 61 171zM162 230q0 -46 28 -75q27 -29 71 -29t71 29t27 75t-27 74.5t-71 28.5q-45 0 -72 -29t-27 -74zM228 -68q19 17 44 17t44.5 -16.5t19.5 -44.5
q0 -29 -20 -47t-44 -18t-44 18t-20 47q0 28 20 44z" />
    <glyph glyph-name="uni1E24" unicode="&#x1e24;" horiz-adv-x="651" 
d="M190 650v-254h252v254h147v-650h-147v254h-252v-254h-147v650h147zM250 -100q0 28 19.5 44.5t44.5 16.5t44.5 -16.5t19.5 -44.5q0 -29 -20 -47t-44 -18t-44 18t-20 47z" />
    <glyph glyph-name="uni1E25" unicode="&#x1e25;" horiz-adv-x="548" 
d="M43 0v650h142v-228q46 45 122 45q72 0 125.5 -44t53.5 -142v-281h-143v258q0 51 -25.5 70t-54.5 19q-17 0 -32 -5t-30.5 -26.5t-15.5 -57.5v-258h-142zM220 -60q19 17 44 17t44.5 -16.5t19.5 -44.5q0 -29 -20 -47t-44 -18t-44 18t-20 47q0 28 20 44z" />
    <glyph glyph-name="uni1E36" unicode="&#x1e36;" horiz-adv-x="530" 
d="M190 650v-516h297v-134h-444v650h147zM200 -104q0 28 19.5 44.5t44.5 16.5t44.5 -16.5t19.5 -44.5q0 -29 -20 -47t-44 -18t-44 18t-20 47z" />
    <glyph glyph-name="uni1E37" unicode="&#x1e37;" horiz-adv-x="248" 
d="M186 650l-1 -650h-142v650h143zM70 -60q19 17 44 17t44.5 -16.5t19.5 -44.5q0 -29 -20 -47t-44 -18t-44 18t-20 47q0 28 20 44z" />
    <glyph glyph-name="uni1E3E" unicode="&#x1e3e;" horiz-adv-x="765" 
d="M191 650l181 -362l182 362h148v-650h-147v350l-132 -277h-101l-132 277v-350h-147v650h148zM370 828h121l-60 -118h-117z" />
    <glyph glyph-name="uni1E3F" unicode="&#x1e3f;" horiz-adv-x="824" 
d="M43 460h142v-42q48 49 117 49q94 0 140 -66q51 66 148 66q70 0 120.5 -43.5t50.5 -142.5v-281h-142v261q0 26 -8.5 44t-22 25.5t-23.5 10t-20 2.5q-14 0 -28 -4t-29 -24t-15 -54v-261h-142v261q0 26 -8.5 44t-22 25.5t-23.5 10t-20 2.5q-14 0 -28 -4t-29 -24t-15 -54
v-261h-142v460zM399 657h121l-60 -118h-117z" />
    <glyph glyph-name="uni1E44" unicode="&#x1e44;" horiz-adv-x="643" 
d="M43 650h142l248 -390v390h147v-650h-143l-247 389v-389h-147v650zM249 758q0 28 19.5 44.5t44.5 16.5t44.5 -16.5t19.5 -44.5q0 -29 -20 -47t-44 -18t-44 18t-20 47z" />
    <glyph glyph-name="uni1E45" unicode="&#x1e45;" horiz-adv-x="548" 
d="M185 460v-38q46 45 122 45q72 0 125.5 -44t53.5 -142v-281h-143v258q0 51 -25.5 70t-54.5 19q-17 0 -32 -5t-30.5 -26.5t-15.5 -57.5v-258h-142v460h142zM219 620q19 16 44 16t44.5 -16.5t19.5 -44.5q0 -29 -20 -47t-44 -18t-44 18t-20 47q0 28 20 45z" />
    <glyph glyph-name="uni1E46" unicode="&#x1e46;" horiz-adv-x="643" 
d="M43 650h142l248 -390v390h147v-650h-143l-247 389v-389h-147v650zM251 -104q0 28 19.5 44.5t44.5 16.5t44.5 -16.5t19.5 -44.5q0 -29 -20 -47t-44 -18t-44 18t-20 47z" />
    <glyph glyph-name="uni1E47" unicode="&#x1e47;" horiz-adv-x="548" 
d="M43 0v460h142v-38q46 45 122 45q72 0 125.5 -44t53.5 -142v-281h-143v258q0 51 -25.5 70t-54.5 19q-17 0 -32 -5t-30.5 -26.5t-15.5 -57.5v-258h-142zM219 -60q19 17 44 17t44.5 -16.5t19.5 -44.5q0 -29 -20 -47t-44 -18t-44 18t-20 47q0 28 20 44z" />
    <glyph glyph-name="uni1E62" unicode="&#x1e62;" horiz-adv-x="612" 
d="M141 234q16 -30 70 -64.5t113 -34.5q81 0 81 54q0 12 -9.5 22.5t-27 18.5t-33.5 13.5t-38 12t-32 10.5q-2 1 -31.5 10.5t-46 16t-46.5 23.5t-47 35t-30.5 47.5t-13.5 64.5q0 101 74.5 150t182.5 49q90 0 163.5 -44t94.5 -99l-116 -77q-15 25 -61 49t-99 24q-70 0 -70 -45
q0 -13 9 -23.5t26 -19t31.5 -13.5t37.5 -12t32 -10q1 -1 25.5 -9t38 -14t39.5 -18t42.5 -26t34 -33t26.5 -43.5t9 -52.5q0 -100 -71.5 -154t-191.5 -54q-107 0 -182.5 48t-101.5 113zM248 -111q0 28 19.5 44.5t44.5 16.5t44.5 -16.5t19.5 -44.5q0 -29 -20 -47t-44 -18
t-44 18t-20 47z" />
    <glyph glyph-name="uni1E6C" unicode="&#x1e6c;" horiz-adv-x="591" 
d="M548 650v-134h-189v-516h-147v516h-189v134h525zM220 -104q0 28 19.5 44.5t44.5 16.5t44.5 -16.5t19.5 -44.5q0 -29 -20 -47t-44 -18t-44 18t-20 47z" />
    <glyph glyph-name="uni1E6D" unicode="&#x1e6d;" horiz-adv-x="349" 
d="M13 460h58v142h143v-142h94v-107h-94v-189q0 -20 5 -32t16 -16t17.5 -5t21.5 -1h29v-110h-89q-143 0 -143 140v213h-58v107zM154 -101q0 28 19.5 44.5t44.5 16.5t44.5 -16.5t19.5 -44.5q0 -29 -20 -47t-44 -18t-44 18t-20 47z" />
    <glyph glyph-name="Wgrave" unicode="&#x1e80;" horiz-adv-x="952" 
d="M13 650h156l126 -383l126 383h108l123 -364l121 364h156l-217 -650h-126l-115 346l-115 -346h-126zM354 828h121l56 -118h-117z" />
    <glyph glyph-name="wgrave" unicode="&#x1e81;" horiz-adv-x="771" 
d="M10 460h147l78 -259l91 259h107l91 -259l78 259h147l-149 -460h-138l-84 246l-84 -246h-138zM261 645h121l56 -118h-117z" />
    <glyph glyph-name="Wacute" unicode="&#x1e82;" horiz-adv-x="952" 
d="M13 650h156l126 -383l126 383h108l123 -364l121 364h156l-217 -650h-126l-115 346l-115 -346h-126zM412 710l56 118h121l-60 -118h-117z" />
    <glyph glyph-name="wacute" unicode="&#x1e83;" horiz-adv-x="771" 
d="M10 460h147l78 -259l91 259h107l91 -259l78 259h147l-149 -460h-138l-84 246l-84 -246h-138zM319 527l56 118h121l-60 -118h-117z" />
    <glyph glyph-name="Wdieresis" unicode="&#x1e84;" horiz-adv-x="952" 
d="M13 650h156l126 -383l126 383h108l123 -364l121 364h156l-217 -650h-126l-115 346l-115 -346h-126zM312 758q0 28 19.5 44.5t44.5 16.5t44.5 -16.5t19.5 -44.5q0 -29 -20 -47t-44 -18t-44 18t-20 47zM524 803q19 16 44 16q24 0 43.5 -16.5t19.5 -44.5q0 -29 -19.5 -47
t-43.5 -18q-25 0 -44.5 18t-19.5 47q0 28 20 45z" />
    <glyph glyph-name="wdieresis" unicode="&#x1e85;" horiz-adv-x="771" 
d="M10 460h147l78 -259l91 259h107l91 -259l78 259h147l-149 -460h-138l-84 246l-84 -246h-138zM239 620q19 16 44 16t44.5 -16.5t19.5 -44.5q0 -29 -20 -47t-44 -18t-44 18t-20 47q0 28 20 45zM431 620q19 16 44 16q24 0 43.5 -16.5t19.5 -44.5q0 -29 -19.5 -47t-43.5 -18
q-25 0 -44.5 18t-19.5 47q0 28 20 45z" />
    <glyph glyph-name="uni1E92" unicode="&#x1e92;" horiz-adv-x="543" 
d="M33 123l282 392h-276v135l462 1v-124l-287 -392l281 -1v-134h-462v123zM199 -104q0 28 19.5 44.5t44.5 16.5t44.5 -16.5t19.5 -44.5q0 -29 -20 -47t-44 -18t-44 18t-20 47z" />
    <glyph glyph-name="uni1E93" unicode="&#x1e93;" horiz-adv-x="422" 
d="M23 106l177 238h-177v116h356v-106l-177 -238h177v-116h-356v106zM138 -104q0 28 19.5 44.5t44.5 16.5t44.5 -16.5t19.5 -44.5q0 -29 -20 -47t-44 -18t-44 18t-20 47z" />
    <glyph glyph-name="uni1EA0" unicode="&#x1ea0;" horiz-adv-x="671" 
d="M275 650h111l263 -650h-156l-35 90h-254l-35 -90h-156zM256 224h150l-76 192zM289 -60q19 17 44 17t44.5 -16.5t19.5 -44.5q0 -29 -20 -47t-44 -18t-44 18t-20 47q0 28 20 44z" />
    <glyph glyph-name="uni1EA1" unicode="&#x1ea1;" 
d="M85 401q61 66 155 66q72 0 119 -45v38h142v-460h-142v38q-46 -46 -119 -46q-93 0 -154.5 67.5t-61.5 170.5q0 104 61 171zM162 230q0 -46 28 -75q27 -29 71 -29t71 29t27 75t-27 74.5t-71 28.5q-45 0 -72 -29t-27 -74zM251 -63q19 17 44 17t44.5 -16.5t19.5 -44.5
q0 -29 -20 -47t-44 -18t-44 18t-20 47q0 28 20 44z" />
    <glyph glyph-name="uni1EB8" unicode="&#x1eb8;" horiz-adv-x="547" 
d="M43 650h446v-134h-299v-124h278v-134h-278v-124h299v-134h-446v650zM207 -102q0 28 19.5 44.5t44.5 16.5t44.5 -16.5t19.5 -44.5q0 -29 -20 -47t-44 -18t-44 18t-20 47z" />
    <glyph glyph-name="uni1EB9" unicode="&#x1eb9;" horiz-adv-x="519" 
d="M87 402q63 67 167 67q102 0 162 -67t60 -172v-38h-314q9 -38 35 -59.5t62 -21.5q65 0 97 43l97 -72q-31 -43 -81.5 -67.5t-112.5 -24.5q-105 0 -170 68t-65 172t63 172zM211 -65q19 17 44 17t44.5 -16.5t19.5 -44.5q0 -29 -20 -47t-44 -18t-44 18t-20 47q0 28 20 44z
M342 281q-21 76 -88 76q-69 0 -90 -76h178z" />
    <glyph glyph-name="uni1EBC" unicode="&#x1ebc;" horiz-adv-x="547" 
d="M43 0v650h446v-134h-299v-124h278v-134h-278v-124h299v-134h-446zM100 704q0 56 28 91.5t81 35.5q46 0 77 -35q22 -24 42 -24q31 0 33 46h81q0 -56 -29 -91.5t-85 -35.5q-48 0 -79 35q-22 24 -37 24q-17 0 -24 -15t-7 -31h-81z" />
    <glyph glyph-name="uni1EBD" unicode="&#x1ebd;" horiz-adv-x="519" 
d="M24 230q0 104 63 171.5t167 67.5q102 0 162 -67t60 -172v-38h-314q9 -38 35 -59.5t62 -21.5q65 0 97 43l97 -72q-31 -43 -81.5 -67.5t-112.5 -24.5q-105 0 -170 68t-65 172zM111 613q28 35 81 35q46 0 77 -35q22 -24 42 -24q31 0 33 46h81q0 -56 -29 -91.5t-85 -35.5
q-48 0 -79 35q-22 24 -37 24q-17 0 -24 -15t-7 -31h-81q0 56 28 92zM342 281q-21 76 -88 76q-69 0 -90 -76h178z" />
    <glyph glyph-name="uni1ECA" unicode="&#x1eca;" horiz-adv-x="252" 
d="M190 650v-650h-147v650h147zM72 -60q19 17 44 17t44.5 -16.5t19.5 -44.5q0 -29 -20 -47t-44 -18t-44 18t-20 47q0 28 20 44z" />
    <glyph glyph-name="uni1ECB" unicode="&#x1ecb;" horiz-adv-x="259" 
d="M48 460h144l-1 -460h-143v460zM66 650q23 20 53 20q31 0 54 -20t23 -54q0 -35 -23 -56q-24 -22 -54 -22t-53 21.5t-23 56.5q0 34 23 54zM75 -68q19 17 44 17t44.5 -16.5t19.5 -44.5q0 -29 -20 -47t-44 -18t-44 18t-20 47q0 28 20 44z" />
    <glyph glyph-name="uni1ECC" unicode="&#x1ecc;" horiz-adv-x="735" 
d="M125 564q92 94 236 94t235 -94t91 -239t-91 -239t-235 -94t-236 94t-92 239t92 239zM231 191q50 -52 130 -52t129.5 52t49.5 134t-49.5 134t-129.5 52t-130.5 -52t-50.5 -134t51 -134zM297 -110q0 28 19.5 44.5t44.5 16.5t44.5 -16.5t19.5 -44.5q0 -29 -20 -47t-44 -18
t-44 18t-20 47z" />
    <glyph glyph-name="uni1ECD" unicode="&#x1ecd;" horiz-adv-x="544" 
d="M91 403q67 67 172 67q104 0 171 -67.5t67 -172.5q0 -103 -67 -171q-67 -69 -171 -69t-171.5 68.5t-67.5 171.5q0 105 67 173zM192 156q27 -30 71 -30t70.5 29.5t26.5 74.5t-26.5 74t-70.5 29t-71.5 -29t-27.5 -74t28 -74zM199 -112q0 28 19.5 44.5t44.5 16.5t44.5 -16.5
t19.5 -44.5q0 -29 -20 -47t-44 -18t-44 18t-20 47z" />
    <glyph glyph-name="uni1EE4" unicode="&#x1ee4;" horiz-adv-x="614" 
d="M43 231v419h147v-403q0 -59 30.5 -85.5t76.5 -26.5t76.5 26.5t30.5 85.5v403h148v-419q0 -100 -68 -169q-68 -70 -187 -70t-186.5 69.5t-67.5 169.5zM233 -107q0 28 19.5 44.5t44.5 16.5t44.5 -16.5t19.5 -44.5q0 -29 -20 -47t-44 -18t-44 18t-20 47z" />
    <glyph glyph-name="uni1EE5" unicode="&#x1ee5;" horiz-adv-x="548" 
d="M43 460h142v-259q0 -51 26 -70t54 -19q17 0 32 5t30.5 26.5t15.5 57.5v259h143v-460h-143v37q-46 -45 -122 -45q-32 0 -61.5 9.5t-57 29.5t-43.5 58t-16 90v281zM201 -108q0 28 19.5 44.5t44.5 16.5t44.5 -16.5t19.5 -44.5q0 -29 -20 -47t-44 -18t-44 18t-20 47z" />
    <glyph glyph-name="Ygrave" unicode="&#x1ef2;" horiz-adv-x="637" 
d="M176 650l135 -224l135 224h168l-229 -376v-274h-147v271l-231 379h169zM194 828h121l56 -118h-117z" />
    <glyph glyph-name="ygrave" unicode="&#x1ef3;" horiz-adv-x="530" 
d="M153 460l103 -263l105 263h147l-256 -644h-138l73 185l-181 459h147zM139 645h121l56 -118h-117z" />
    <glyph glyph-name="uni1EF4" unicode="&#x1ef4;" horiz-adv-x="637" 
d="M7 650h169l135 -224l135 224h168l-229 -376v-274h-147v271zM267 -60q19 17 44 17t44.5 -16.5t19.5 -44.5q0 -29 -20 -47t-44 -18t-44 18t-20 47q0 28 20 44z" />
    <glyph glyph-name="uni1EF5" unicode="&#x1ef5;" horiz-adv-x="530" 
d="M153 460l103 -263l105 263h147l-256 -644h-138l73 185l-181 459h147zM339 -119q0 28 19.5 44.5t44.5 16.5t44.5 -16.5t19.5 -44.5q0 -29 -20 -47t-44 -18t-44 18t-20 47z" />
    <glyph glyph-name="uni1EF8" unicode="&#x1ef8;" horiz-adv-x="637" 
d="M7 650h169l135 -224l135 224h168l-229 -376v-274h-147v271zM168 796q28 35 81 35q46 0 77 -35q22 -24 42 -24q31 0 33 46h81q0 -56 -29 -91.5t-85 -35.5q-48 0 -79 35q-22 24 -37 24q-17 0 -24 -15t-7 -31h-81q0 56 28 92z" />
    <glyph glyph-name="uni1EF9" unicode="&#x1ef9;" horiz-adv-x="530" 
d="M153 460l103 -263l105 263h147l-256 -644h-138l73 185l-181 459h147zM113 613q28 35 81 35q46 0 77 -35q22 -24 42 -24q31 0 33 46h81q0 -56 -29 -91.5t-85 -35.5q-48 0 -79 35q-22 24 -37 24q-17 0 -24 -15t-7 -31h-81q0 56 28 92z" />
    <glyph glyph-name="endash" unicode="&#x2013;" horiz-adv-x="493" 
d="M43 206v134h388v-134h-388z" />
    <glyph glyph-name="emdash" unicode="&#x2014;" horiz-adv-x="570" 
d="M43 205v134h464v-134h-464z" />
    <glyph glyph-name="quoteleft" unicode="&#x2018;" horiz-adv-x="222" 
d="M23 456l74 194h102l-41 -194h-135z" />
    <glyph glyph-name="quoteright" unicode="&#x2019;" horiz-adv-x="222" 
d="M23 456l40 194h136l-75 -194h-101z" />
    <glyph glyph-name="quotesinglbase" unicode="&#x201a;" horiz-adv-x="222" 
d="M23 -105l40 194h136l-75 -194h-101z" />
    <glyph glyph-name="quotedblleft" unicode="&#x201c;" horiz-adv-x="433" 
d="M23 456l74 194h102l-41 -194h-135zM234 456l75 194h102l-41 -194h-136z" />
    <glyph glyph-name="quotedblright" unicode="&#x201d;" horiz-adv-x="433" 
d="M23 456l40 194h136l-75 -194h-101zM234 456l41 194h136l-75 -194h-102z" />
    <glyph glyph-name="quotedblbase" unicode="&#x201e;" horiz-adv-x="433" 
d="M23 -105l40 194h136l-75 -194h-101zM234 -105l41 194h136l-75 -194h-102z" />
    <glyph glyph-name="dagger" unicode="&#x2020;" horiz-adv-x="442" 
d="M145 0v359h-102v108h102v183h134v-183h101v-108h-101v-359h-134z" />
    <glyph glyph-name="daggerdbl" unicode="&#x2021;" horiz-adv-x="442" 
d="M145 0v164h-102v108h102v113h-102v108h102v157h134v-157h101v-108h-101v-113h101v-108h-101v-164h-134z" />
    <glyph glyph-name="bullet" unicode="&#x2022;" horiz-adv-x="281" 
d="M141 207q-52 0 -85 33t-33 85t33 84.5t85 32.5t85 -32.5t33 -84.5t-33 -85t-85 -33z" />
    <glyph glyph-name="ellipsis" unicode="&#x2026;" horiz-adv-x="648" 
d="M97 -7q-33 0 -53.5 21t-20.5 53q0 33 20.5 53.5t53.5 20.5q32 0 53 -20.5t21 -53.5q0 -32 -21 -53t-53 -21zM325 -7q-33 0 -53.5 21t-20.5 53q0 33 20.5 53.5t53.5 20.5q32 0 53 -20.5t21 -53.5q0 -32 -21 -53t-53 -21zM551 -7q-33 0 -53.5 21t-20.5 53q0 33 20.5 53.5
t53.5 20.5q32 0 53 -20.5t21 -53.5q0 -32 -21 -53t-53 -21z" />
    <glyph glyph-name="perthousand" unicode="&#x2030;" horiz-adv-x="1262" 
d="M204 329q-70 0 -115.5 46.5t-45.5 116.5q0 73 45 119t116 46q69 0 114.5 -46.5t45.5 -118.5q0 -70 -45.5 -116.5t-114.5 -46.5zM198 0l351 650h109l-351 -650h-109zM204 421q31 0 49.5 20.5t18.5 50.5q0 32 -18.5 52.5t-49.5 20.5q-32 0 -50.5 -20.5t-18.5 -52.5
q0 -30 19 -50.5t50 -20.5zM653 -8q-70 0 -115.5 46.5t-45.5 116.5q0 72 45.5 118.5t115.5 46.5t115 -46t45 -119q0 -70 -45.5 -116.5t-114.5 -46.5zM1040 -8q-70 0 -116 46.5t-46 116.5q0 73 45.5 119t116.5 46q69 0 114.5 -46.5t45.5 -118.5q0 -70 -45.5 -116.5
t-114.5 -46.5zM653 84q31 0 49.5 20.5t18.5 50.5q0 32 -18.5 52.5t-49.5 20.5q-32 0 -50.5 -20.5t-18.5 -52.5q0 -30 19 -50.5t50 -20.5zM1040 84q31 0 49.5 20.5t18.5 50.5q0 31 -18.5 52t-49.5 21q-32 0 -51 -21t-19 -52q0 -30 19.5 -50.5t50.5 -20.5z" />
    <glyph glyph-name="guilsinglleft" unicode="&#x2039;" horiz-adv-x="407" 
d="M195 135l-172 186l172 186h169l-171 -186l171 -186h-169z" />
    <glyph glyph-name="guilsinglright" unicode="&#x203a;" horiz-adv-x="407" 
d="M23 135l171 186l-171 186h169l172 -186l-172 -186h-169z" />
    <glyph glyph-name="fraction" unicode="&#x2044;" horiz-adv-x="513" 
d="M20 0l401 650h72l-401 -650h-72z" />
    <glyph glyph-name="uni2070" unicode="&#x2070;" horiz-adv-x="419" 
d="M204 253q-77 0 -124 56.5t-47 145.5t47 146t124 57q76 0 124.5 -57t48.5 -146q0 -88 -48.5 -145t-124.5 -57zM204 340q33 0 56.5 30t23.5 85t-23.5 84t-56.5 29q-34 0 -58 -29t-24 -84t24 -85t58 -30z" />
    <glyph glyph-name="uni2074" unicode="&#x2074;" horiz-adv-x="384" 
d="M217 258v66h-194v57l194 269h88v-262h46v-64h-46v-66h-88zM109 388h108v150z" />
    <glyph glyph-name="uni2075" unicode="&#x2075;" horiz-adv-x="365" 
d="M163 257q-85 0 -140 57l57 63q33 -34 77 -34q29 0 50 12t21 38t-22 39t-52 13q-38 0 -68 -14l-28 42l32 181h210v-81h-140l-12 -56h8q82 0 121.5 -36t39.5 -93q0 -62 -43.5 -96.5t-110.5 -34.5z" />
    <glyph glyph-name="uni2076" unicode="&#x2076;" horiz-adv-x="367" 
d="M176 252q-61 0 -102 42t-41 103q0 48 25 84l108 169h95l-68 -109q55 -6 90.5 -46.5t35.5 -97.5q0 -61 -40.5 -103t-102.5 -42zM176 336q26 0 43 17.5t17 43.5q0 27 -17 45t-43 18t-43 -18t-17 -45q0 -26 17 -43.5t43 -17.5z" />
    <glyph glyph-name="uni2077" unicode="&#x2077;" horiz-adv-x="312" 
d="M127 257l-93 1l143 311h-156v80h259v-58z" />
    <glyph glyph-name="uni2078" unicode="&#x2078;" horiz-adv-x="372" 
d="M179 250q-71 0 -108.5 34t-37.5 88q0 58 54 89q-47 34 -47 86q0 43 35.5 76.5t103.5 33.5t103 -33.5t35 -76.5q0 -53 -46 -86q53 -30 53 -89q0 -54 -37 -88t-108 -34zM179 492q28 0 42.5 14t14.5 35t-14.5 35.5t-42.5 14.5t-43 -14.5t-15 -35.5q0 -20 15 -34.5t43 -14.5z
M179 323q29 0 44.5 15.5t15.5 38.5t-15.5 38.5t-44.5 15.5t-45 -15.5t-16 -38.5q0 -22 16.5 -38t44.5 -16z" />
    <glyph glyph-name="uni2079" unicode="&#x2079;" horiz-adv-x="367" 
d="M91 256l68 110q-55 6 -90.5 47t-35.5 97q0 60 41 102.5t102 42.5t102 -42.5t41 -102.5q0 -48 -25 -84l-108 -170h-95zM176 448q27 0 43.5 17.5t16.5 44.5t-16.5 44t-43.5 17q-26 0 -43 -17.5t-17 -43.5t17 -44t43 -18z" />
    <glyph glyph-name="Euro" unicode="&#x20ac;" horiz-adv-x="569" 
d="M431 -8q-104 0 -180.5 58.5t-106.5 156.5h-101v73h86q-2 30 -2 45q0 14 2 40h-86v73h99q30 101 106.5 160.5t182.5 59.5h20.5h35h20.5v-134h-14h-21h-14q-118 0 -164 -86h159v-73h-181q-2 -24 -2 -40q0 -24 3 -45h180v-73h-156q48 -81 161 -81q29 0 49 2v-134
q-20 -2 -76 -2z" />
    <glyph glyph-name="trademark" unicode="&#x2122;" horiz-adv-x="1356" 
d="M634 650h148l181 -362l182 362h148v-650h-147v350l-132 -277h-101l-132 277v-350h-147v650zM23 650h525v-134h-189v-516h-147v516h-189v134z" />
    <glyph glyph-name="oneeighth" unicode="&#x215b;" horiz-adv-x="540" 
d="M77 322v260h-70v68h144v-328h-74zM11 0l401 650h72l-401 -650h-72zM410 -6q-59 0 -90 27.5t-31 71.5q0 49 45 74q-39 26 -39 71q0 35 29.5 62t85.5 27q55 0 84 -27t29 -62q0 -45 -38 -71q44 -26 44 -74q0 -44 -30.5 -71.5t-88.5 -27.5zM410 192q23 0 34.5 12t11.5 29
t-12 29t-34 12q-23 0 -35.5 -12t-12.5 -29t12.5 -29t35.5 -12zM410 53q23 0 36 13t13 31q0 19 -13 32t-36 13q-24 0 -37.5 -13t-13.5 -32q0 -18 13.5 -31t37.5 -13z" />
    <glyph glyph-name="threeeighths" unicode="&#x215c;" horiz-adv-x="627" 
d="M127 322q-36 0 -68.5 14t-47.5 36l45 50q27 -29 71 -29q26 0 41.5 11.5t15.5 31.5q0 21 -15.5 33t-41.5 12t-57 -9l1 52l76 59h-113v67h215v-62l-66 -57q74 -21 74 -95q0 -58 -38.5 -86t-91.5 -28zM83 0l401 650h72l-401 -650h-72zM497 -6q-59 0 -90 27.5t-31 71.5
q0 49 45 74q-39 26 -39 71q0 35 29.5 62t85.5 27q55 0 84 -27t29 -62q0 -45 -38 -71q44 -26 44 -74q0 -44 -30.5 -71.5t-88.5 -27.5zM497 192q23 0 34.5 12t11.5 29t-12 29t-34 12q-23 0 -35.5 -12t-12.5 -29t12.5 -29t35.5 -12zM497 53q23 0 36 13t13 31q0 19 -13 32
t-36 13q-24 0 -37.5 -13t-13.5 -32q0 -18 14 -31t37 -13z" />
    <glyph glyph-name="fiveeighths" unicode="&#x215d;" horiz-adv-x="627" 
d="M130 322q-74 0 -118 48l48 53q27 -29 65 -29q24 0 41.5 10.5t17.5 31.5q0 22 -18.5 33t-43.5 11q-29 0 -58 -12l-23 35l27 152h177v-68h-118l-10 -47h7q68 0 101 -30t33 -78q0 -52 -36 -81t-92 -29zM84 0l401 650h72l-401 -650h-72zM497 -6q-59 0 -90 27.5t-31 71.5
q0 49 45 74q-39 26 -39 71q0 35 29.5 62t85.5 27q55 0 84 -27t29 -62q0 -45 -38 -71q44 -26 44 -74q0 -44 -30.5 -71.5t-88.5 -27.5zM497 192q23 0 34.5 12t11.5 29t-12 29t-34 12q-23 0 -35.5 -12t-12.5 -29t12.5 -29t35.5 -12zM497 53q23 0 36 13t13 31q0 19 -13 32
t-36 13q-24 0 -37.5 -13t-13.5 -32q0 -18 14 -31t37 -13z" />
    <glyph glyph-name="seveneighths" unicode="&#x215e;" horiz-adv-x="558" 
d="M11 0l401 650h72l-401 -650h-72zM130 322l-77 1l120 260h-131v67h217v-48zM428 -6q-59 0 -90 27.5t-31 71.5q0 49 45 74q-39 26 -39 71q0 35 29.5 62t85.5 27q55 0 84 -27t29 -62q0 -45 -38 -71q44 -26 44 -74q0 -44 -30.5 -71.5t-88.5 -27.5zM428 192q23 0 34.5 12
t11.5 29t-12 29t-34 12q-23 0 -35.5 -12t-12.5 -29t12.5 -29t35.5 -12zM428 53q23 0 36 13t13 31q0 19 -13 32t-36 13q-24 0 -37.5 -13t-13.5 -32q0 -18 13.5 -31t37.5 -13z" />
    <glyph glyph-name="arrowleft" unicode="&#x2190;" horiz-adv-x="751" 
d="M325 39l-282 283l282 282l86 -85l-131 -131h409v-133h-408l130 -131z" />
    <glyph glyph-name="arrowup" unicode="&#x2191;" horiz-adv-x="671" 
d="M258 1v409l-130 -130l-85 85l282 283l283 -283l-86 -85l-130 130v-409h-134z" />
    <glyph glyph-name="arrowright" unicode="&#x2192;" horiz-adv-x="751" 
d="M406 39l-85 85l130 131h-408v133h409l-131 131l85 85l283 -282z" />
    <glyph glyph-name="arrowdown" unicode="&#x2193;" horiz-adv-x="671" 
d="M325 1l-282 283l85 85l130 -130v409h134v-409l130 130l86 -85z" />
    <glyph glyph-name="arrowboth" unicode="&#x2194;" horiz-adv-x="994" 
d="M324 39l-283 283l283 282l85 -85l-131 -131h421l-131 131l85 85l283 -282l-283 -283l-85 85l129 131h-418l130 -131z" />
    <glyph glyph-name="arrowupdn" unicode="&#x2195;" horiz-adv-x="631" 
d="M304 -75l-260 261l85 85l108 -106v316l-109 -109l-85 85l261 262l265 -262l-85 -85l-114 110v-319l114 113l85 -85z" />
    <glyph glyph-name="uni2196" unicode="&#x2196;" horiz-adv-x="611" 
d="M453 144l-290 291v-185h-120v400h400v-121h-184l289 -290z" />
    <glyph glyph-name="uni2197" unicode="&#x2197;" horiz-adv-x="611" 
d="M137 144l-94 95l289 290h-184v121h400v-400h-121v184z" />
    <glyph glyph-name="uni2198" unicode="&#x2198;" horiz-adv-x="611" 
d="M148 0v121h185l-290 290l94 95l290 -290v184h121v-400h-400z" />
    <glyph glyph-name="uni2199" unicode="&#x2199;" horiz-adv-x="611" 
d="M43 0v400h120v-185l290 291l95 -95l-290 -290h185v-121h-400z" />
    <glyph glyph-name="partialdiff" unicode="&#x2202;" horiz-adv-x="565" 
d="M272 -17q-99 0 -164 65t-65 167q0 100 62.5 164t159.5 66q-85 131 -179 205h153q84 -66 162.5 -175t93.5 -196q7 -35 7 -64q0 -101 -65 -166.5t-165 -65.5zM272 117q42 0 69 27t27 71t-27 70t-69 26q-41 0 -68 -26.5t-27 -69.5q0 -44 27 -71t68 -27z" />
    <glyph glyph-name="emptyset" unicode="&#x2205;" horiz-adv-x="565" 
d="M81 65l43 70q-81 67 -81 186q0 104 64 170.5t167 66.5q54 0 99 -20l24 39h68l-43 -70q81 -67 81 -186q0 -104 -63.5 -170.5t-165.5 -66.5q-55 0 -101 20l-24 -39h-68zM183 230l132 214q-20 6 -41 6q-55 0 -89.5 -36t-34.5 -93q0 -56 33 -91zM274 192q54 0 87.5 36
t33.5 93t-32 91l-132 -213q18 -7 43 -7z" />
    <glyph glyph-name="product" unicode="&#x220f;" horiz-adv-x="673" 
d="M138 0v516h-95v134h567v-134h-93v-516h-134v516h-111v-516h-134z" />
    <glyph glyph-name="summation" unicode="&#x2211;" horiz-adv-x="572" 
d="M43 -8v116l184 214l-184 219v117h466v-134h-270l170 -202l-164 -196h264v-134h-466z" />
    <glyph glyph-name="minus" unicode="&#x2212;" horiz-adv-x="517" 
d="M43 268v107h412v-107h-412z" />
    <glyph glyph-name="radical" unicode="&#x221a;" horiz-adv-x="769" 
d="M178 -48l-135 365h134l69 -185l204 560h256v-108h-161l-231 -632h-136z" />
    <glyph glyph-name="infinity" unicode="&#x221e;" horiz-adv-x="823" 
d="M200 172q-67 0 -112 44.5t-45 106.5q0 61 45.5 105.5t111.5 44.5q56 0 99 -17.5t106 -69.5q102 87 198 87q69 0 113.5 -44t44.5 -106q0 -63 -44.5 -107t-113.5 -44q-55 0 -93.5 17t-104.5 75q-64 -59 -104 -75.5t-101 -16.5zM200 266q66 0 124 58q-67 55 -124 55
q-23 0 -45 -13t-22 -43t22.5 -43.5t44.5 -13.5zM603 266q24 0 45.5 13t21.5 44q0 30 -21.5 43t-45.5 13q-59 0 -116 -54q62 -59 116 -59z" />
    <glyph glyph-name="integral" unicode="&#x222b;" horiz-adv-x="560" 
d="M43 -48v108h52q75 0 85 84l40 371q10 91 63 134t116 43h99v-107h-54q-77 0 -85 -84l-41 -384q-8 -83 -59 -124t-118 -41h-98z" />
    <glyph glyph-name="approxequal" unicode="&#x2248;" horiz-adv-x="582" 
d="M362 330q-27 0 -49 8t-33.5 16t-27.5 23q-3 3 -9.5 9t-9 8t-7 6t-7 5.5t-6.5 3t-8 2t-9 0.5q-24 0 -35 -20t-11 -44h-107q0 78 38 127t112 49q26 0 49 -9.5t31.5 -16.5t27.5 -24q37 -34 61 -34q49 0 49 67h108q0 -78 -39.5 -127t-117.5 -49zM362 120q-27 0 -49 8
t-33.5 16t-27.5 23q-3 3 -9.5 9t-9 8t-7 6t-7 5.5t-6.5 3t-8 2t-9 0.5q-24 0 -35 -20t-11 -44h-107q0 78 38 127t112 49q26 0 49 -9.5t31.5 -16.5t27.5 -24q37 -34 61 -34q49 0 49 67h108q0 -78 -39.5 -127t-117.5 -49z" />
    <glyph glyph-name="notequal" unicode="&#x2260;" horiz-adv-x="517" 
d="M100 77l35 86h-92v107h135l40 101h-175v108h218l35 86h102l-35 -86h92v-108h-135l-40 -101h175v-107h-218l-35 -86h-102z" />
    <glyph glyph-name="lessequal" unicode="&#x2264;" horiz-adv-x="438" 
d="M376 233l-330 98v104l330 98v-99l-181 -51l181 -51v-99zM43 110v90h333v-90h-333z" />
    <glyph glyph-name="greaterequal" unicode="&#x2265;" horiz-adv-x="438" 
d="M43 233v99l181 51l-181 51v99l330 -98v-104zM43 110v90h333v-90h-333z" />
    <glyph glyph-name="lozenge" unicode="&#x25ca;" horiz-adv-x="654" 
d="M246 0l-203 322l207 328h134l207 -328l-203 -322h-142zM317 97l142 225l-142 225l-142 -225z" />
    <glyph glyph-name="A.ss01" horiz-adv-x="671" 
d="M13 0l262 650h111l263 -650h-156l-162 411l-162 -411h-156z" />
    <glyph glyph-name="I.ss01" horiz-adv-x="431" 
d="M23 0v134h109v382h-109v134h366v-134h-110v-382h110v-134h-366z" />
    <glyph glyph-name="J.ss01" horiz-adv-x="599" 
d="M276 -8q-103 0 -169.5 53.5t-83.5 128.5l143 53q9 -47 39 -69.5t71 -22.5q48 0 80.5 30t32.5 96v254h-231v135h378v-412q0 -114 -73 -180t-187 -66z" />
    <glyph glyph-name="R.ss01" horiz-adv-x="612" 
d="M570 -3q-106 0 -174 34.5t-123 132.5l-27 48h-56v-212h-147v650h318q81 0 140 -57.5t59 -161.5q0 -83 -39 -137t-99 -73l8 -14q45 -76 140 -76v-134zM190 354h143q33 0 56.5 20.5t23.5 56.5t-23.5 56t-56.5 20h-143v-153z" />
    <glyph glyph-name="i.loclTRK" horiz-adv-x="251" 
d="M187 460l-1 -460h-142v460h143zM71 620q19 16 44 16t44.5 -16.5t19.5 -44.5q0 -29 -20 -47t-44 -18t-44 18t-20 47q0 28 20 45z" />
    <glyph glyph-name="a.ss01" horiz-adv-x="527" 
d="M42 193q17 28 43.5 43t69 24t79 11.5t88.5 2.5q0 43 -25.5 63t-56.5 20q-67 0 -88 -47l-111 49q18 45 69 78t131 33q110 0 166.5 -48.5t56.5 -142.5v-279h-142v33q-44 -41 -116 -41q-99 0 -140.5 38.5t-41.5 96.5q0 38 18 66zM226 93q45 0 70.5 20.5t25.5 56.5v27
q-93 -2 -126.5 -16t-33.5 -45q0 -43 64 -43z" />
    <glyph glyph-name="n.ss01" horiz-adv-x="549" 
d="M300 460q81 0 134 -45t53 -130v-285h-143v250q0 55 -21 76t-76 21h-62v-347h-142v460h257z" />
    <glyph glyph-name="r.ss01" horiz-adv-x="335" 
d="M43 0v238q0 117 63.5 173t195.5 56v-135q-58 -1 -87.5 -30t-29.5 -95v-207h-142z" />
    <glyph glyph-name="u.ss01" horiz-adv-x="549" 
d="M43 175v285h142v-250q0 -55 21 -76t76 -21h62v347h143v-460h-257q-81 0 -134 45t-53 130z" />
    </font>
</defs>
</svg>
