<?xml version="1.0" standalone="no"?>
<!DOCTYPE svg PUBLIC "-//W3C//DTD SVG 1.1//EN" "http://www.w3.org/Graphics/SVG/1.1/DTD/svg11.dtd" >
<svg xmlns="http://www.w3.org/2000/svg" xmlns:xlink="http://www.w3.org/1999/xlink" version="1.1">
<metadata>
Created by FontForge 20170731 at Tue Jul 14 08:15:11 2020
 By Aleksey,,,
Copyright (c) 2020 by Bagas Ardiatma. All rights reserved.
</metadata>
<defs>
<font id="Causten-Regular" horiz-adv-x="579" >
  <font-face 
    font-family="Causten-Regular"
    font-weight="400"
    font-stretch="normal"
    units-per-em="1000"
    panose-1="0 0 5 0 0 0 0 0 0 0"
    ascent="774"
    descent="-226"
    x-height="460"
    cap-height="650"
    bbox="-301 -200 1256 854"
    underline-thickness="50"
    underline-position="-150"
    unicode-range="U+0020-25CA"
  />
<missing-glyph horiz-adv-x="475" 
d="M88 -200v950h302v-950h-302zM316 -5v107h-157v-107h157zM159 -27v-31h66l-66 -45v-31h157v31h-97l67 45h30v31h-157zM316 159v107h-95v-53h33v22h31v-45h-95v76h-31v-107h157zM159 564v-99h157v32h-62v67h-95zM316 589v31h-62v35h62v31h-156v-31h61v-35h-62v-31h157z
M159 373v-31h95v66h62v31h-157v-31h62v-35h-62zM159 320v-33h157v95h-31v-62h-126zM190 71h95v-45h-95v45zM190 532h31v-35h-31v35z" />
    <glyph glyph-name="f_f" unicode="ff" horiz-adv-x="637" 
d="M536 591q-31 0 -52 -17.5t-21 -53.5v-60h122v-57h-122v-403h-72v403h-231v-403h-73v403h-64v57h64v64q0 60 32.5 93t93.5 33h75v-59h-56q-31 0 -51.5 -17.5t-20.5 -53.5v-60h231v64q0 60 32 93t89 33h84v-59h-60z" />
    <glyph glyph-name="t_t.liga" unicode="tt" horiz-adv-x="610" 
d="M567 403h-110v-283q0 -61 64 -61h41v-59h-67q-53 0 -82 29t-29 81v293h-224v-283q0 -61 64 -61h41v-59h-67q-53 0 -82 28.5t-29 81.5v293h-64v57h64v140h73v-140h224v140h73v-140h110v-57z" />
    <glyph glyph-name=".notdef" horiz-adv-x="475" 
d="M88 -200v950h302v-950h-302zM316 -5v107h-157v-107h157zM159 -27v-31h66l-66 -45v-31h157v31h-97l67 45h30v31h-157zM316 159v107h-95v-53h33v22h31v-45h-95v76h-31v-107h157zM159 564v-99h157v32h-62v67h-95zM316 589v31h-62v35h62v31h-156v-31h61v-35h-62v-31h157z
M159 373v-31h95v66h62v31h-157v-31h62v-35h-62zM159 320v-33h157v95h-31v-62h-126zM190 71h95v-45h-95v45zM190 532h31v-35h-31v35z" />
    <glyph glyph-name=".null" horiz-adv-x="0" 
 />
    <glyph glyph-name="uni000D" horiz-adv-x="333" 
 />
    <glyph glyph-name="space" unicode=" " horiz-adv-x="200" 
 />
    <glyph glyph-name="exclam" unicode="!" horiz-adv-x="192" 
d="M38 650h76l-5 -494h-66zM33 41q0 18 12 31q12 12 31 12t31 -12.5t12 -30.5q0 -19 -12 -31.5t-31 -12.5t-31 12.5t-12 31.5z" />
    <glyph glyph-name="quotedbl" unicode="&#x22;" horiz-adv-x="303" 
d="M271 650l-13 -131h-56l-11 131h80zM112 650l-13 -131h-56l-10 131h79z" />
    <glyph glyph-name="numbersign" unicode="#" horiz-adv-x="708" 
d="M33 162v66h110l43 194h-115v66h129l35 159h71l-35 -159h220l35 159h71l-35 -159h93v-66h-107l-43 -194h112v-66h-126l-36 -165h-71l36 165h-220l-36 -165h-71l36 165h-96zM214 228h220l43 194h-220z" />
    <glyph glyph-name="dollar" unicode="$" horiz-adv-x="622" 
d="M116 192q17 -46 71 -77.5t125 -31.5q149 0 149 99q0 15 -5.5 28.5t-12 23t-20.5 18.5t-23.5 14t-28.5 11.5t-26.5 8.5t-27.5 7t-23 6t-23 6t-28.5 8t-29.5 10t-32 13.5t-29 16.5t-28 21.5t-20.5 26t-15 32.5t-4.5 39q0 67 51.5 108.5t137.5 49.5v62h71v-62
q74 -7 130 -40.5t74 -80.5l-62 -36q-14 37 -64 63.5t-112 26.5q-66 0 -103.5 -24t-37.5 -63q0 -19 8.5 -34.5t19 -25t31.5 -19t33.5 -13.5t37.5 -11t33 -9q2 0 19.5 -5t25 -7t26.5 -8.5t29 -11.5t27.5 -14t27.5 -18t22.5 -21.5t19 -26t11.5 -31t5 -36.5q0 -76 -53 -121
t-148 -52v-61h-71v62q-83 7 -141 44t-79 97z" />
    <glyph glyph-name="percent" unicode="%" horiz-adv-x="823" 
d="M94 612q41 41 104 41t104 -41.5t41 -107.5q0 -64 -41 -106q-42 -42 -104 -42t-103.5 42t-41.5 106q0 66 41 108zM502 253q41 41 104 41q62 0 103 -42t41 -107q0 -64 -41 -106t-103 -42q-63 0 -104.5 42t-41.5 106q0 66 42 108zM195 0l351 650h62l-351 -650h-62zM131 435
q26 -27 67 -27t67 27t26 69q0 43 -26 70t-67 27t-67 -27t-26 -70q0 -42 26 -69zM539 76q26 -27 67 -27q40 0 66 27t26 69q0 43 -25.5 70t-66.5 27t-67.5 -27t-26.5 -70q0 -42 27 -69z" />
    <glyph glyph-name="ampersand" unicode="&#x26;" horiz-adv-x="631" 
d="M53 170q0 57 32 102t109 97l-17 22q-64 80 -64 137q0 54 41.5 93t108.5 39q66 0 107.5 -39t41.5 -93q0 -33 -12.5 -61.5t-36 -50.5t-41.5 -35t-45 -29l160 -203q30 54 30 123v14h59v-14q0 -98 -51 -171l83 -104h-74q-17 23 -47 59q-72 -66 -168 -66q-101 0 -158.5 50
t-57.5 130zM123 170q0 -53 38.5 -87t108.5 -34q75 0 131 54l-170 219q-65 -45 -86.5 -79.5t-21.5 -72.5zM184 480q11 -21 38 -57l19 -25q23 13 39 24t34 27.5t27.5 35t9.5 39.5q0 36 -25.5 59.5t-62.5 23.5q-38 0 -64 -23.5t-26 -59.5q0 -24 11 -44z" />
    <glyph glyph-name="quotesingle" unicode="'" horiz-adv-x="144" 
d="M33 650h79l-18 -131h-56z" />
    <glyph glyph-name="parenleft" unicode="(" horiz-adv-x="251" 
d="M42 462q21 141 79 230h76q-61 -83 -77.5 -190t-16.5 -179t17 -180.5t78 -190.5h-77q-58 88 -73.5 193.5t-15.5 175.5q0 71 10 141z" />
    <glyph glyph-name="parenright" unicode=")" horiz-adv-x="261" 
d="M127 178q11 72 11 144t-16.5 179.5t-77.5 190.5h76q88 -137 88 -371t-88 -369h-77q61 82 84 226z" />
    <glyph glyph-name="asterisk" unicode="*" horiz-adv-x="388" 
d="M154 490l-108 73l24 37l101 -68v118h46v-119l103 66l23 -37l-109 -70l108 -73l-24 -36l-101 68v-119h-46v119l-103 -66l-23 37z" />
    <glyph glyph-name="plus" unicode="+" horiz-adv-x="507" 
d="M53 352h160v160h62v-160h159v-62h-159v-160h-62v160h-160v62z" />
    <glyph glyph-name="comma" unicode="," horiz-adv-x="175" 
d="M63 60h79l-53 -144h-56z" />
    <glyph glyph-name="hyphen" unicode="-" horiz-adv-x="407" 
d="M53 329h282v-70h-282v70z" />
    <glyph glyph-name="period" unicode="." horiz-adv-x="152" 
d="M33 40q0 19 12 31t31 12t31 -12t12 -31t-12 -31t-31 -12t-31 12t-12 31z" />
    <glyph glyph-name="slash" unicode="/" horiz-adv-x="325" 
d="M33 -47l212 739h73l-212 -739h-73z" />
    <glyph glyph-name="zero" unicode="0" horiz-adv-x="627" 
d="M43 325q0 147 71.5 240t193.5 93t194 -93t72 -240t-72 -240t-194 -93t-193.5 93t-71.5 240zM118 325q0 -118 52 -188q51 -71 138 -71t138 70.5t51 188.5t-51 187.5t-138 69.5t-138.5 -69.5t-51.5 -187.5z" />
    <glyph glyph-name="one" unicode="1" horiz-adv-x="313" 
d="M240 650v-650h-75v580h-149v70h224z" />
    <glyph glyph-name="two" unicode="2" horiz-adv-x="521" 
d="M33 525q16 54 76.5 94t144.5 40q103 0 163.5 -49.5t60.5 -135.5q0 -41 -17.5 -82.5t-54.5 -84t-56.5 -61t-61.5 -55.5q-8 -7 -11 -10l-124 -111h324v-70h-441l-1 64l159 139q106 93 143 137q63 74 63 130q0 54 -38.5 85t-107.5 31q-55 0 -98 -26.5t-55 -64.5z" />
    <glyph glyph-name="three" unicode="3" horiz-adv-x="543" 
d="M83 137q24 -31 68.5 -51t96.5 -20q70 0 116 39t46 104q0 67 -45.5 105.5t-116.5 38.5q-61 0 -115 -20l1 59l230 188h-285v70h393v-66l-202 -170q90 -5 153 -56.5t63 -148.5q0 -103 -69.5 -160t-168.5 -57q-67 0 -126 26.5t-89 69.5z" />
    <glyph glyph-name="four" unicode="4" horiz-adv-x="570" 
d="M33 190l342 460h75v-455h77v-58h-77v-137h-75v137h-342v53zM110 195h265v355z" />
    <glyph glyph-name="five" unicode="5" horiz-adv-x="541" 
d="M33 86l52 51q59 -72 159 -72q75 1 119.5 40t44.5 105q0 64 -47 103.5t-120 39.5q-81 0 -132 -30l-25 55l44 272h328v-70h-268l-28 -174q41 10 83 10q116 0 178 -59t62 -151q0 -99 -64.5 -156.5t-170.5 -57.5q-68 0 -124.5 26t-90.5 68z" />
    <glyph glyph-name="six" unicode="6" horiz-adv-x="550" 
d="M43 222q0 75 46 143l190 285h83l-135 -201q19 3 41 3q96 0 160 -65.5t64 -164.5t-64 -164.5t-160 -65.5t-160.5 65.5t-64.5 164.5zM158 108q43 -44 110 -44q66 0 109 44t43 114t-43 114.5t-109 44.5q-67 0 -110.5 -44.5t-43.5 -114.5t44 -114z" />
    <glyph glyph-name="seven" unicode="7" horiz-adv-x="464" 
d="M67 0l268 580h-309v70h396v-54l-275 -596h-80z" />
    <glyph glyph-name="eight" unicode="8" horiz-adv-x="553" 
d="M43 179q0 51 28 93t81 65q-49 22 -74 62t-25 88q0 69 55.5 120.5t161.5 51.5q105 0 160 -51t55 -121q0 -105 -98 -150q53 -23 81 -65t28 -93q0 -84 -58 -136t-168 -52t-168.5 52t-58.5 136zM156 91q39 -36 114 -36t114 35t39 93q0 54 -39.5 90t-113.5 36t-114 -36
t-40 -90q0 -57 40 -92zM124 483q0 -52 36.5 -84.5t109.5 -32.5t109 32.5t36 84.5q0 48 -36 83q-37 34 -109 34t-109 -34.5t-37 -82.5z" />
    <glyph glyph-name="nine" unicode="9" horiz-adv-x="550" 
d="M43 428q0 99 64 164.5t160 65.5t160.5 -65.5t64.5 -164.5q0 -74 -45 -142l-188 -286h-84l132 201q-20 -3 -40 -3q-96 0 -160 65.5t-64 164.5zM157 314q43 -44 110 -44t110 44t43 114t-43 114t-110 44t-110 -44t-43 -114t43 -114z" />
    <glyph glyph-name="colon" unicode=":" horiz-adv-x="159" 
d="M45 71q12 12 31 12t31 -12t12 -31t-12 -31t-31 -12t-31 12t-12 31t12 31zM45 364q12 12 31 12t31 -12t12 -31q0 -18 -12 -30q-12 -13 -31 -13t-31 12.5t-12 30.5q0 19 12 31z" />
    <glyph glyph-name="semicolon" unicode=";" horiz-adv-x="186" 
d="M67 60h79l-57 -144h-56zM55 333q0 18 12.5 30.5t30.5 12.5t30.5 -12.5t12.5 -30.5t-12 -30q-13 -13 -31 -13t-30.5 12.5t-12.5 30.5z" />
    <glyph glyph-name="less" unicode="&#x3c;" horiz-adv-x="455" 
d="M383 474v-59l-253 -93l253 -94v-59l-330 122v61z" />
    <glyph glyph-name="equal" unicode="=" horiz-adv-x="507" 
d="M53 451h382v-59h-382v59zM435 252v-59h-382v59h382z" />
    <glyph glyph-name="greater" unicode="&#x3e;" horiz-adv-x="455" 
d="M306 322l-253 93v59l330 -122v-61l-330 -122v59z" />
    <glyph glyph-name="question" unicode="?" horiz-adv-x="492" 
d="M16 530q20 56 77.5 93.5t129.5 37.5q90 0 148.5 -46.5t58.5 -129.5q0 -31 -6.5 -55.5t-25.5 -50t-28 -35.5t-39 -40q-25 -26 -35 -37.5t-23 -37.5t-13 -52v-21h-76v21q0 36 14 68.5t26 46.5t32 34q4 4 17.5 17t17.5 17t14 15t14 16t11 15t9.5 17t6.5 16.5t5 19.5t1 21
q0 51 -35.5 81t-93.5 30q-46 0 -87 -26t-53 -64zM180 35q0 19 12 32q12 12 31 12t31.5 -12.5t12.5 -31.5q0 -18 -12.5 -30.5t-31.5 -12.5t-31 12.5t-12 30.5z" />
    <glyph glyph-name="at" unicode="@" horiz-adv-x="796" 
d="M53 324q0 149 96 247q95 98 240 98t240 -92.5t95 -236.5q0 -85 -29.5 -140t-96.5 -55q-38 0 -67 20.5t-39 58.5q-38 -65 -117 -65q-61 0 -105 44.5t-44 117.5t44 117t105 44q75 0 113 -58v53h51v-212q0 -37 16.5 -56.5t42.5 -19.5q74 0 74 151q0 130 -80.5 204t-202.5 74
q-120 0 -202.5 -82t-82.5 -212q0 -129 82.5 -211.5t202.5 -82.5q77 0 134 30l26 -47q-70 -35 -160 -35q-146 0 -241 99t-95 247zM277 321q0 -46 30 -78q29 -33 76 -33t76 32.5t29 78.5t-29 78t-76 32t-76.5 -32t-29.5 -78z" />
    <glyph glyph-name="A" unicode="A" horiz-adv-x="648" 
d="M23 0l267 650h58l267 -650h-80l-65 160h-302l-65 -160h-80zM441 230l-123 303l-122 -303h245z" />
    <glyph glyph-name="B" unicode="B" horiz-adv-x="603" 
d="M53 650h299q78 0 129.5 -47t51.5 -127q0 -96 -77 -139q46 -19 73.5 -60t27.5 -96q0 -80 -54 -130.5t-131 -50.5h-319v650zM128 70h234q53 0 85.5 33.5t32.5 82.5q0 50 -33 83t-85 33h-234v-232zM128 366h213q52 0 83.5 29t31.5 78q0 48 -31.5 77.5t-83.5 29.5h-213v-214z
" />
    <glyph glyph-name="C" unicode="C" horiz-adv-x="682" 
d="M43 325q0 146 90.5 239.5t234.5 93.5q172 0 263 -131l-61 -44q-32 45 -84.5 72t-117.5 27q-111 0 -180.5 -72.5t-69.5 -184.5t69.5 -184.5t180.5 -72.5q64 0 117 27.5t85 73.5l61 -46q-91 -131 -263 -131q-144 0 -234.5 93.5t-90.5 239.5z" />
    <glyph glyph-name="D" unicode="D" horiz-adv-x="651" 
d="M273 650q144 0 232.5 -90t88.5 -235t-88.5 -235t-232.5 -90h-220v650h220zM273 74q100 0 172.5 65.5t72.5 185.5t-72.5 185.5t-172.5 65.5h-145v-502h145z" />
    <glyph glyph-name="E" unicode="E" horiz-adv-x="541" 
d="M53 650h421v-70h-346v-221h325v-70h-325v-219h346v-70h-421v650z" />
    <glyph glyph-name="F" unicode="F" horiz-adv-x="540" 
d="M475 650v-72h-347v-227h328v-72h-328v-279h-75v650h422z" />
    <glyph glyph-name="G" unicode="G" horiz-adv-x="743" 
d="M43 325q0 146 90.5 239.5t234.5 93.5q85 0 152.5 -34.5t110.5 -95.5l-62 -44q-70 98 -201 98q-111 0 -180.5 -72.5t-69.5 -184.5t69.5 -184.5t180.5 -72.5q93 0 155 55.5t72 148.5h-230v70h315v-32q-5 -141 -89 -229.5t-223 -88.5q-144 0 -234.5 93.5t-90.5 239.5z" />
    <glyph glyph-name="H" unicode="H" horiz-adv-x="628" 
d="M128 650v-289h352v289h76v-650h-76v288h-352v-288h-75v650h75z" />
    <glyph glyph-name="I" unicode="I" horiz-adv-x="201" 
d="M128 0h-75v650h75v-650z" />
    <glyph glyph-name="J" unicode="J" horiz-adv-x="501" 
d="M33 142l74 25q7 -46 37.5 -73.5t84.5 -27.5q59 0 91.5 34t32.5 88v462h76v-471q0 -85 -54.5 -136t-145.5 -51q-84 0 -134 41t-62 109z" />
    <glyph glyph-name="K" unicode="K" horiz-adv-x="534" 
d="M53 0v650h75v-297l271 297h90l-295 -325l308 -325h-91l-283 298v-298h-75z" />
    <glyph glyph-name="L" unicode="L" horiz-adv-x="524" 
d="M128 70h344v-70h-419v650h75v-580z" />
    <glyph glyph-name="M" unicode="M" horiz-adv-x="744" 
d="M133 650l229 -456l229 456h80v-650h-75v505l-208 -425h-52l-208 425v-505h-75v650h80z" />
    <glyph glyph-name="N" unicode="N" horiz-adv-x="625" 
d="M53 650h73l351 -521v521h76v-650h-74l-350 521v-521h-76v650z" />
    <glyph glyph-name="O" unicode="O" horiz-adv-x="750" 
d="M134 565q90 93 234 93t234 -93.5t90 -239.5t-90 -239q-90 -94 -234 -94t-234.5 93.5t-90.5 239.5t91 240zM188 141q69 -73 180 -73q112 0 180.5 72t68.5 185t-68.5 185t-180.5 72q-111 0 -180.5 -72.5t-69.5 -184.5t70 -184z" />
    <glyph glyph-name="P" unicode="P" horiz-adv-x="584" 
d="M346 650q76 0 131 -55.5t55 -142.5t-55 -142.5t-131 -55.5h-218v-254h-75v650h293zM128 576v-249h207q52 0 86.5 36t34.5 89q0 52 -34 88t-87 36h-207z" />
    <glyph glyph-name="Q" unicode="Q" horiz-adv-x="750" 
d="M43 325q0 145 91 239t234 94q144 0 234 -93.5t90 -239.5q0 -95 -40.5 -171t-112.5 -118l88 -118h-91l-66 88q-48 -14 -102 -14q-144 0 -234.5 93.5t-90.5 239.5zM188 141q69 -73 180 -73q25 0 53 5l-77 103h91l58 -78q59 32 91.5 91.5t32.5 135.5q0 113 -68.5 185
t-180.5 72q-111 0 -180.5 -72.5t-69.5 -184.5t70 -184z" />
    <glyph glyph-name="R" unicode="R" horiz-adv-x="603" 
d="M353 650q76 0 131 -55.5t55 -142.5q0 -81 -47.5 -134.5t-116.5 -62.5l176 -255h-89l-175 254h-159v-254h-75v650h300zM128 327h214q53 0 87 36t34 89q0 52 -34 88t-87 36h-214v-249z" />
    <glyph glyph-name="S" unicode="S" horiz-adv-x="601" 
d="M33 139l62 41q18 -48 75.5 -82t135.5 -34q159 0 159 117q0 20 -10.5 37.5t-23.5 28t-37.5 21t-39 15t-42 11.5t-33.5 9q-3 1 -27 7t-35 9t-35.5 12t-38 17t-33 22t-29.5 29t-17.5 36.5t-7.5 45.5q0 88 67 134t176 46q88 0 155 -37t85 -92l-62 -37q-14 38 -66 64.5
t-120 26.5q-72 0 -111 -27t-39 -75q0 -17 6 -30.5t19 -24t25 -18.5t32.5 -14.5t33 -10t35 -9t29.5 -7.5q1 0 25.5 -7t35 -10.5t36 -13t39.5 -18t34 -23.5t30.5 -30.5t18.5 -37.5t8 -46q0 -95 -65.5 -145t-183.5 -50q-101 0 -171.5 42t-94.5 108z" />
    <glyph glyph-name="T" unicode="T" horiz-adv-x="585" 
d="M33 650h499v-70h-212v-580h-75v580h-212v70z" />
    <glyph glyph-name="U" unicode="U" horiz-adv-x="614" 
d="M128 650v-417q0 -79 46 -123t123 -44t123 44t46 123v417h76v-424q0 -102 -66 -168t-179 -66t-178.5 66t-65.5 168v424h75z" />
    <glyph glyph-name="V" unicode="V" horiz-adv-x="642" 
d="M103 650l213 -528l213 528h81l-264 -650h-60l-263 650h80z" />
    <glyph glyph-name="W" unicode="W" horiz-adv-x="946" 
d="M103 650l169 -510l170 510h56l168 -501l166 501h81l-217 -650h-64l-164 493l-165 -493h-63l-217 650h80z" />
    <glyph glyph-name="X" unicode="X" horiz-adv-x="604" 
d="M23 650h88l181 -261l181 261h89l-225 -325l225 -325h-89l-181 261l-181 -261h-88l225 325z" />
    <glyph glyph-name="Y" unicode="Y" horiz-adv-x="588" 
d="M102 650l183 -287l183 287h87l-232 -365v-285h-75v283l-234 367h88z" />
    <glyph glyph-name="Z" unicode="Z" horiz-adv-x="539" 
d="M487 585l-353 -514l346 -1v-70h-437v65l352 515h-346v70h438v-65z" />
    <glyph glyph-name="bracketleft" unicode="[" horiz-adv-x="279" 
d="M206 692v-57h-83v-626h83v-57h-153v740h153z" />
    <glyph glyph-name="backslash" unicode="\" horiz-adv-x="313" 
d="M293 -48h-73l-212 739h73z" />
    <glyph glyph-name="bracketright" unicode="]" horiz-adv-x="279" 
d="M136 9v626h-83v57h153v-740h-153v57h83z" />
    <glyph glyph-name="asciicircum" unicode="^" horiz-adv-x="382" 
d="M148 650h65l96 -263h-59l-70 189l-68 -189h-59z" />
    <glyph glyph-name="underscore" unicode="_" horiz-adv-x="465" 
d="M53 70h339v-70h-339v70z" />
    <glyph glyph-name="grave" unicode="`" horiz-adv-x="152" 
d="M87 650l45 -98h-62l-50 98h67z" />
    <glyph glyph-name="a" unicode="a" 
d="M39 230q0 104 63 170.5t161 66.5q114 0 171 -90v83h73v-460h-73v83q-58 -91 -171 -91q-98 0 -161 67.5t-63 170.5zM109 230q0 -74 45 -121q45 -48 118 -48t117.5 47.5t44.5 121.5t-44.5 121t-117.5 47t-118 -47t-45 -121z" />
    <glyph glyph-name="b" unicode="b" 
d="M53 650h72v-273q57 90 171 90q98 0 161.5 -67t63.5 -170t-63.5 -170.5t-161.5 -67.5q-113 0 -171 91v-83h-72v650zM170 109q44 -48 117 -48t118 47.5t45 121.5t-45 121t-118 47t-117.5 -47t-44.5 -121t45 -121z" />
    <glyph glyph-name="c" unicode="c" horiz-adv-x="508" 
d="M104 401q65 66 168 66q122 0 187 -92l-53 -40q-45 63 -132 63q-74 0 -119 -47t-45 -121t45 -121.5t119 -47.5q85 0 132 63l53 -39q-64 -93 -187 -93q-103 0 -168 67t-65 171t65 171z" />
    <glyph glyph-name="d" unicode="d" 
d="M39 230q0 104 63 170.5t161 66.5q114 0 171 -90v273h73v-650h-73v83q-58 -91 -171 -91q-98 0 -161 67.5t-63 170.5zM109 230q0 -74 45 -121q45 -48 118 -48t117.5 47.5t44.5 121.5t-44.5 121t-117.5 47t-118 -47t-45 -121z" />
    <glyph glyph-name="e" unicode="e" horiz-adv-x="545" 
d="M102 401q62 67 164 67q98 0 159 -67t61 -171v-23h-377q7 -69 51 -111t112 -42q94 0 141 70l51 -37q-65 -96 -192 -96q-104 0 -168.5 67.5t-64.5 171.5t63 171zM109 257h310q-8 67 -49 109t-104 42q-66 0 -107.5 -41t-49.5 -110z" />
    <glyph glyph-name="f" unicode="f" horiz-adv-x="335" 
d="M23 460h64v64q0 60 32.5 93t93.5 33h80v-59h-61q-34 0 -53 -18.5t-19 -52.5v-60h122v-57h-122v-403h-73v403h-64v57z" />
    <glyph glyph-name="g" unicode="g" 
d="M39 230q0 103 63 170t161 67q114 0 171 -90v83h73v-426q0 -100 -66 -162t-176 -62q-122 0 -190 81l49 41q53 -59 141 -59q70 0 119.5 41.5t49.5 119.5v49q-58 -91 -171 -91q-98 0 -161 67.5t-63 170.5zM154 109q45 -48 118 -48t117.5 47.5t44.5 121.5t-44.5 121
t-117.5 47t-118 -47t-45 -121t45 -121z" />
    <glyph glyph-name="h" unicode="h" horiz-adv-x="529" 
d="M53 650h72v-252q50 69 148 69q76 0 129.5 -46.5t53.5 -137.5v-283h-72v273q0 63 -37.5 97t-92.5 34t-92 -34t-37 -97v-273h-72v650z" />
    <glyph glyph-name="i" unicode="i" horiz-adv-x="214" 
d="M61 0v460h73l-1 -460h-72zM66 634q13 12 31 12t31 -12t13 -31t-13 -32q-14 -13 -31 -13t-30.5 13t-13.5 32t13 31z" />
    <glyph glyph-name="j" unicode="j" horiz-adv-x="225" 
d="M-26 -184v59h24q75 0 75 72v513h72v-527q0 -53 -32 -85t-92 -32h-47zM64 603q0 19 13 31t31 12t31.5 -12t13.5 -31t-13 -32q-14 -13 -31 -13t-31 13t-14 32z" />
    <glyph glyph-name="k" unicode="k" horiz-adv-x="467" 
d="M53 0v650h72v-387l201 197h88l-222 -218l243 -242h-88l-222 221v-221h-72z" />
    <glyph glyph-name="l" unicode="l" horiz-adv-x="198" 
d="M125 0h-72v650h72v-650z" />
    <glyph glyph-name="m" unicode="m" horiz-adv-x="815" 
d="M53 460h72v-59q47 66 137 66q110 0 152 -86q45 86 157 86q72 0 121.5 -44.5t49.5 -139.5v-283h-72v275q0 64 -34.5 95.5t-84.5 31.5t-83.5 -31.5t-33.5 -95.5v-275h-73v275q0 64 -34.5 95.5t-83.5 31.5q-50 0 -84 -31.5t-34 -95.5v-275h-72v460z" />
    <glyph glyph-name="n" unicode="n" horiz-adv-x="529" 
d="M53 460h72v-62q50 69 148 69q76 0 129.5 -46.5t53.5 -137.5v-283h-72v273q0 63 -37.5 97t-92.5 34t-92 -34t-37 -97v-273h-72v460z" />
    <glyph glyph-name="o" unicode="o" horiz-adv-x="565" 
d="M39 230q0 104 65.5 171t168.5 67t168.5 -67t65.5 -171q0 -103 -65 -171q-66 -68 -169 -68t-168.5 68t-65.5 171zM111 230q0 -73 45 -121t117 -48t116.5 47.5t44.5 121.5t-44.5 121t-116.5 47t-117 -47.5t-45 -120.5z" />
    <glyph glyph-name="p" unicode="p" 
d="M53 460h72v-84q57 91 171 91q98 0 161.5 -67.5t63.5 -170.5t-63.5 -170t-161.5 -67q-114 0 -171 91v-267h-72v644zM170 108q44 -47 117 -47t118 47t45 121t-45 121.5t-118 47.5t-117.5 -47.5t-44.5 -121.5t45 -121z" />
    <glyph glyph-name="q" unicode="q" 
d="M39 229q0 103 63 170.5t161 67.5q114 0 171 -91v84h73v-644h-73v267q-57 -91 -171 -91q-98 0 -161 66.5t-63 170.5zM109 229q0 -74 45 -121t118 -47t117.5 47t44.5 121t-44.5 121.5t-117.5 47.5t-118 -47.5t-45 -121.5z" />
    <glyph glyph-name="r" unicode="r" horiz-adv-x="330" 
d="M53 460h72v-85q50 90 162 92v-69q-64 -1 -113 -37.5t-49 -112.5v-248h-72v460z" />
    <glyph glyph-name="s" unicode="s" horiz-adv-x="451" 
d="M29 95l52 31q12 -32 51.5 -55t91.5 -23q108 0 108 78q0 14 -7 25.5t-15 19t-25.5 14.5t-26 10t-29 8t-23.5 6l-18 5q-19 5 -25.5 7t-25.5 9t-28 12.5t-23.5 16t-21.5 21.5t-12.5 26.5t-5.5 32.5q0 63 48 96.5t126 33.5q67 0 114 -26t63 -65l-51 -30q-10 26 -46 44.5
t-82 18.5q-48 0 -74.5 -18t-26.5 -51q0 -11 4 -20.5t12.5 -16.5t16.5 -12.5t21.5 -10t21.5 -7t23 -6.5t20 -5q2 0 15 -4t19 -5.5t20.5 -6.5t23 -8.5t21.5 -10.5t21 -14t18 -16.5t15 -19.5t9 -23.5t4 -27.5q0 -68 -46.5 -104t-132.5 -36q-75 0 -125.5 29.5t-68.5 77.5z" />
    <glyph glyph-name="t" unicode="t" horiz-adv-x="316" 
d="M23 403v57h64v140h73v-140h110v-57h-110v-283q0 -61 64 -61h41v-59h-67q-53 0 -82 29t-29 81v293h-64z" />
    <glyph glyph-name="u" unicode="u" horiz-adv-x="529" 
d="M53 460h72v-275q0 -63 37.5 -97t92.5 -34t92 34t37 97v275h72v-460h-72v61q-50 -69 -148 -69q-76 0 -129.5 46.5t-53.5 137.5v284z" />
    <glyph glyph-name="v" unicode="v" horiz-adv-x="478" 
d="M10 460h75l142 -361l143 361h75l-183 -460h-71z" />
    <glyph glyph-name="w" unicode="w" horiz-adv-x="730" 
d="M13 460h75l117 -358l124 358h52l123 -358l118 358h75l-154 -460h-72l-116 341l-118 -341h-72z" />
    <glyph glyph-name="x" unicode="x" horiz-adv-x="494" 
d="M23 460h85l130 -173l129 173h85l-172 -230l172 -230h-85l-129 173l-130 -173h-85l172 230z" />
    <glyph glyph-name="y" unicode="y" horiz-adv-x="478" 
d="M85 460l142 -360l143 360h75l-256 -644h-71l72 185l-180 459h75z" />
    <glyph glyph-name="z" unicode="z" horiz-adv-x="429" 
d="M377 460v-57l-254 -342h250v-61h-340v56l254 343h-250v61h340z" />
    <glyph glyph-name="braceleft" unicode="{" horiz-adv-x="330" 
d="M53 296v52h15q15 0 25.5 12.5t10.5 35.5v207q0 89 76 89h77v-57h-49q-33 0 -33 -43v-196q0 -53 -42 -74q42 -21 42 -74v-196q0 -43 33 -43h49v-57h-77q-34 0 -55 21.5t-21 67.5v207q0 23 -10.5 35.5t-25.5 12.5h-15z" />
    <glyph glyph-name="bar" unicode="|" horiz-adv-x="195" 
d="M123 -48h-70v740h70v-740z" />
    <glyph glyph-name="braceright" unicode="}" horiz-adv-x="330" 
d="M53 635v57h77q76 0 76 -89v-207q0 -23 10.5 -35.5t25.5 -12.5h15v-52h-15q-15 0 -25.5 -12.5t-10.5 -35.5v-207q0 -46 -21 -67.5t-55 -21.5h-77v57h49q33 0 33 43v196q0 53 42 74q-42 21 -42 74v196q0 43 -33 43h-49z" />
    <glyph glyph-name="asciitilde" unicode="~" horiz-adv-x="596" 
d="M53 256q0 65 35.5 106t98.5 41q10 0 20.5 -2t18 -4t16.5 -6.5t13.5 -7.5t13.5 -10t11 -9t10.5 -9.5t9.5 -8.5q25 -23 43.5 -34.5t41.5 -11.5q35 0 57 22t22 66h59q0 -65 -36.5 -106.5t-101.5 -41.5q-26 0 -50.5 11t-34 18.5t-29.5 26.5q-1 1 -7.5 7t-7.5 7t-7 6.5t-8 6.5
t-7.5 5t-8 5t-8 3.5t-9.5 3t-9 1.5t-10 1q-36 0 -57 -24.5t-21 -61.5h-58z" />
    <glyph glyph-name="exclamdown" unicode="&#xa1;" horiz-adv-x="142" 
d="M30 493h67l5 -493h-77zM33 641q13 12 31 12q17 0 30 -12.5t13 -30.5t-13 -31t-30 -13q-18 0 -31 13t-13 31t13 31z" />
    <glyph glyph-name="cent" unicode="&#xa2;" horiz-adv-x="663" 
d="M117 529q64 83 179 100v68h70v-64q75 -4 129 -37t96 -94l-63 -40q-70 97 -180 97q-101 0 -161.5 -63t-60.5 -166t60.5 -166.5t161.5 -63.5q113 0 180 95l63 -38q-42 -61 -96 -94t-129 -37v-74h-70v78q-115 17 -179 100.5t-64 199.5t64 199z" />
    <glyph glyph-name="sterling" unicode="&#xa3;" horiz-adv-x="522" 
d="M53 59q78 0 115 30.5t37 82.5q0 2 -1 31t-25 104h-119v43h103l-3 7q-31 74 -31 132q0 71 53 124.5t167 53.5q45 0 98 -9v-58q-49 10 -88 10q-86 0 -119.5 -40.5t-33.5 -91.5q0 -50 27 -115q3 -7 5 -13h174v-43h-158q20 -65 20 -116q0 -87 -60 -132h235v-59h-396v59z" />
    <glyph glyph-name="currency" unicode="&#xa4;" horiz-adv-x="571" 
d="M53 140l72 72q-32 48 -32 111q0 62 32 110l-71 71l40 40l70 -70q48 37 113 37q64 0 111 -36l69 69l41 -38l-71 -71q33 -47 33 -112t-33 -112l71 -71l-40 -40l-70 70q-47 -36 -111 -36q-66 0 -114 37l-69 -69zM188 230q36 -37 89 -37t88.5 36.5t35.5 93.5q0 58 -35.5 93.5
t-88.5 35.5t-89 -36t-36 -93t36 -93z" />
    <glyph glyph-name="yen" unicode="&#xa5;" horiz-adv-x="588" 
d="M14 650h88l183 -287l183 287h87l-221 -346h152v-44h-163v-90h163v-44h-163v-126h-75v126h-164v44h164v90h-164v44h151z" />
    <glyph glyph-name="brokenbar" unicode="&#xa6;" horiz-adv-x="195" 
d="M123 692v-294h-70v294h70zM53 -48v294h70v-294h-70z" />
    <glyph glyph-name="section" unicode="&#xa7;" horiz-adv-x="482" 
d="M53 80l58 20q22 -72 129 -72q109 0 109 80q0 19 -9 33t-28 24t-32 14.5t-39 12.5q-7 2 -10 3q-25 7 -36.5 10.5t-38.5 15.5t-41.5 24t-27 33.5t-12.5 46.5q0 87 81 114q-79 35 -79 106q0 59 44.5 94t118.5 35q63 0 103.5 -25.5t53.5 -66.5l-55 -22q-16 55 -102 55
q-50 0 -77 -19t-27 -51q0 -29 28 -46t78 -32q3 -1 29 -8t37.5 -11t34.5 -15.5t34.5 -23.5t21.5 -32t10 -45q0 -87 -88 -112q86 -37 86 -112q0 -70 -46.5 -104.5t-122.5 -34.5q-73 0 -120 29.5t-65 81.5zM166 278q32 -20 77 -20q53 0 80.5 20.5t27.5 54.5q0 33 -33 53.5
t-82 20.5q-50 0 -76.5 -20t-26.5 -56q0 -34 33 -53z" />
    <glyph glyph-name="dieresis" unicode="&#xa8;" horiz-adv-x="297" 
d="M199 632q0 16 12 26.5t27 10.5t27 -10.5t12 -26.5q0 -17 -12 -28q-12 -12 -27 -12t-27 11.5t-12 28.5zM20 632q0 16 12 26.5t27 10.5t27 -10.5t12 -26.5q0 -17 -12 -28q-12 -12 -27 -12t-27 11.5t-12 28.5z" />
    <glyph glyph-name="copyright" unicode="&#xa9;" horiz-adv-x="776" 
d="M144 565q90 93 234 93t234.5 -93.5t90.5 -239.5t-90.5 -239.5t-234.5 -93.5q-145 0 -235 93.5t-90 239.5t91 240zM97 325q0 -121 76 -205t205 -84q130 0 205.5 84t75.5 205t-75.5 205t-205.5 84t-205.5 -84t-75.5 -205zM263 454q48 49 124 49q92 0 140 -69l-37 -27
q-32 52 -103 52q-51 0 -89 -35.5t-38 -97.5t38 -98t89 -36q32 0 59.5 14t43.5 37l37 -25q-48 -70 -140 -70q-76 0 -124 50t-48 128t48 128z" />
    <glyph glyph-name="guillemotleft" unicode="&#xab;" 
d="M270 321l172 186h90l-171 -186l171 -186h-90zM28 321l172 186h89l-171 -186l171 -186h-89z" />
    <glyph glyph-name="logicalnot" unicode="&#xac;" horiz-adv-x="522" 
d="M53 379h397v-195h-70v125h-327v70z" />
    <glyph glyph-name="registered" unicode="&#xae;" horiz-adv-x="775" 
d="M144 564q90 94 234 94q143 0 233.5 -94t90.5 -239t-90.5 -239t-233.5 -94q-144 0 -234.5 94.5t-90.5 238.5t91 239zM173 121q75 -85 205 -85t205 84.5t75 204.5t-75 204.5t-205 84.5t-205.5 -84.5t-75.5 -204.5t76 -204zM420 500q42 0 72 -30t30 -78q0 -43 -25 -73
t-62 -35l94 -140h-53l-93 139h-85v-139h-45v356h167zM415 327q25 0 43.5 18.5t18.5 46.5t-18.5 46t-43.5 18h-117v-129h117z" />
    <glyph glyph-name="macron" unicode="&#xaf;" horiz-adv-x="213" 
d="M20 650h173v-50h-173v50z" />
    <glyph glyph-name="degree" unicode="&#xb0;" horiz-adv-x="332" 
d="M82 621q33 33 84 33q50 0 83.5 -33t33.5 -85q0 -51 -33.5 -84t-83.5 -33q-51 0 -84 33t-33 84q0 52 33 85zM114 483q21 -22 52 -22q30 0 51.5 21.5t21.5 53.5t-21.5 53.5t-51.5 21.5t-52 -21.5t-22 -53.5t22 -53z" />
    <glyph glyph-name="plusminus" unicode="&#xb1;" horiz-adv-x="484" 
d="M53 350v52h150v91h59v-91h150v-52h-150v-92h-59v92h-150zM412 197v-51h-359v51h359z" />
    <glyph glyph-name="twosuperior" unicode="&#xb2;" horiz-adv-x="344" 
d="M80 636q36 24 86 24q62 0 98.5 -30t36.5 -82q0 -26 -11.5 -52t-36 -53t-35.5 -38t-38 -34l-75 -67h196v-42h-266l-1 39l96 83q31 27 42.5 38t36 36.5t35 46.5t10.5 41q0 33 -23 51.5t-65 18.5q-33 0 -58.5 -16t-33.5 -39l-41 18q10 32 47 57z" />
    <glyph glyph-name="threesuperior" unicode="&#xb3;" horiz-adv-x="363" 
d="M33 311l30 30q34 -43 100 -43q42 0 69.5 23.5t27.5 62.5q0 41 -27.5 64t-69.5 23q-35 0 -70 -12l1 35l139 114h-172v42h237v-40l-122 -102q54 -3 92 -34t38 -90q0 -62 -42 -96.5t-101 -34.5q-41 0 -76.5 16t-53.5 42z" />
    <glyph glyph-name="acute" unicode="&#xb4;" horiz-adv-x="152" 
d="M66 650h66l-49 -98h-63z" />
    <glyph glyph-name="paragraph" unicode="&#xb6;" horiz-adv-x="508" 
d="M79 610q37 40 103 40h73v-650h-70v364q-67 0 -105 37t-38 103q0 65 37 106zM366 650h70v-650h-70v650z" />
    <glyph glyph-name="periodcentered" unicode="&#xb7;" horiz-adv-x="158" 
d="M33 325q0 20 13 33t33 13t33 -13t13 -33t-13 -33t-33 -13t-33 13t-13 33z" />
    <glyph glyph-name="cedilla" unicode="&#xb8;" horiz-adv-x="172" 
d="M23 -148v43q16 -12 51 -12t35 22t-40 22q-22 0 -31 -6l-1 36q1 0 1 1l26 42h46l-22 -38q63 -9 63 -57q0 -28 -20 -45t-57 -17q-32 0 -51 9z" />
    <glyph glyph-name="onesuperior" unicode="&#xb9;" horiz-adv-x="224" 
d="M151 650v-392h-45v350h-90v42h135z" />
    <glyph glyph-name="guillemotright" unicode="&#xbb;" horiz-adv-x="585" 
d="M444 321l-171 186h88l172 -186l-172 -186h-88zM120 507l172 -186l-172 -186h-87l171 186l-171 186h87z" />
    <glyph glyph-name="onequarter" unicode="&#xbc;" horiz-adv-x="494" 
d="M233 68v26l170 228h37v-225h38v-29h-38v-68h-37v68h-170zM425 650h39l-401 -650h-39zM14 650h113v-328h-38v293h-75v35zM403 97v175l-132 -175h132z" />
    <glyph glyph-name="onehalf" unicode="&#xbd;" horiz-adv-x="551" 
d="M313 256q8 26 37.5 45.5t70.5 19.5q50 0 79.5 -24t29.5 -66q0 -17 -8.5 -36.5t-16 -31.5t-26.5 -31t-23.5 -23t-23.5 -21l-60 -54h157v-34h-214l-1 31l78 68q2 2 13.5 12t15.5 13.5t14 13.5l15 15q5 5 13 14.5t12 16t8.5 14.5t6.5 16t2 15q0 26 -18.5 41t-52.5 15
q-27 0 -48 -12.5t-27 -31.5zM23 0l401 650h39l-401 -650h-39zM14 615v35h113v-328h-38v293h-75z" />
    <glyph glyph-name="threequarters" unicode="&#xbe;" horiz-adv-x="547" 
d="M456 322h37v-225h38v-29h-38v-68h-37v68h-170v26zM16 370l25 24q28 -35 83 -35q35 0 57.5 19.5t22.5 51.5q0 34 -22.5 53t-57.5 19q-31 0 -58 -10l1 29l114 94h-142v35h196v-33l-100 -85q44 -3 75.5 -28.5t31.5 -73.5q0 -51 -34.5 -79.5t-83.5 -28.5q-34 0 -63.5 13
t-44.5 35zM485 650h39l-401 -650h-39zM324 97h132v175z" />
    <glyph glyph-name="questiondown" unicode="&#xbf;" horiz-adv-x="446" 
d="M23 222q6 23 11.5 36.5t24.5 36t25 28t32 31.5q25 26 35 37.5t23 37.5t13 52v21h75v-21q0 -36 -13.5 -68.5t-25.5 -46.5t-32 -34q-60 -58 -75 -81q-22 -34 -22 -74q0 -51 35.5 -80.5t94.5 -29.5q45 0 86 26.5t54 64.5l66 -30q-20 -56 -77 -93.5t-129 -37.5
q-90 0 -149 46.5t-59 129.5q0 25 7 49zM180 618q0 18 12 30.5t31 12.5t31.5 -12.5t12.5 -30.5q0 -19 -12 -31q-13 -13 -32 -13t-31 12.5t-12 31.5z" />
    <glyph glyph-name="Agrave" unicode="&#xc0;" horiz-adv-x="648" 
d="M290 650h58l267 -650h-80l-65 160h-302l-65 -160h-80zM441 230l-123 303l-122 -303h245zM306 808l45 -98h-62l-50 98h67z" />
    <glyph glyph-name="Aacute" unicode="&#xc1;" horiz-adv-x="648" 
d="M290 650h58l267 -650h-80l-65 160h-302l-65 -160h-80zM441 230l-123 303l-122 -303h245zM333 808h66l-49 -98h-63z" />
    <glyph glyph-name="Acircumflex" unicode="&#xc2;" horiz-adv-x="648" 
d="M290 650h58l267 -650h-80l-65 160h-302l-65 -160h-80zM441 230l-123 303l-122 -303h245zM214 710l62 98h86l62 -98h-64l-41 68l-41 -68h-64z" />
    <glyph glyph-name="Atilde" unicode="&#xc3;" horiz-adv-x="648" 
d="M290 650h58l267 -650h-80l-65 160h-302l-65 -160h-80zM441 230l-123 303l-122 -303h245zM178 708q1 40 23.5 66.5t59.5 26.5q39 0 68 -33q24 -26 46 -26q36 0 38 47h46q-1 -41 -22.5 -67t-61.5 -26t-70 34q-23 25 -43 25q-18 0 -27.5 -14.5t-10.5 -32.5h-46z" />
    <glyph glyph-name="Adieresis" unicode="&#xc4;" horiz-adv-x="648" 
d="M290 650h58l267 -650h-80l-65 160h-302l-65 -160h-80zM441 230l-123 303l-122 -303h245zM370 742q0 16 12 26.5t27 10.5t27 -10.5t12 -26.5q0 -17 -12 -28q-12 -12 -27 -12t-27 11.5t-12 28.5zM191 742q0 16 12 26.5t27 10.5t27 -10.5t12 -26.5q0 -17 -12 -28
q-12 -12 -27 -12t-27 11.5t-12 28.5z" />
    <glyph glyph-name="Aring" unicode="&#xc5;" horiz-adv-x="648" 
d="M23 0l267 650h58l267 -650h-80l-65 160h-302l-65 -160h-80zM196 230h245l-123 303zM240 776q0 35 22.5 56.5t56.5 21.5q35 0 57 -21.5t22 -56.5q0 -33 -22 -55q-23 -22 -57 -22t-56.5 22t-22.5 55zM290 749q10 -13 29 -13t29 12t10 28t-10 28t-29 12t-29 -12.5t-10 -27.5
t10 -27z" />
    <glyph glyph-name="AE" unicode="&#xc6;" horiz-adv-x="958" 
d="M294 650h597v-70h-334v-221h313v-70h-313v-219h334v-70h-409v289h-259l-120 -289h-80zM252 359h230v221h-138z" />
    <glyph glyph-name="Ccedilla" unicode="&#xc7;" horiz-adv-x="682" 
d="M134 565q90 93 234 93q172 0 263 -131l-61 -44q-32 45 -84.5 72t-117.5 27q-111 0 -180.5 -72.5t-69.5 -184.5t69.5 -184.5t180.5 -72.5q64 0 117 27.5t85 73.5l61 -46q-85 -122 -244 -131l-16 -28q63 -9 63 -57q0 -28 -20.5 -45t-56.5 -17q-32 0 -51 9v43q16 -12 51 -12
t35 22t-40 22q-22 0 -32 -6v36q1 0 1 1l20 33q-133 9 -215.5 101.5t-82.5 230.5q0 146 91 240z" />
    <glyph glyph-name="Egrave" unicode="&#xc8;" horiz-adv-x="541" 
d="M53 650h421v-70h-346v-221h325v-70h-325v-219h346v-70h-421v650zM190 808h67l45 -98h-62z" />
    <glyph glyph-name="Eacute" unicode="&#xc9;" horiz-adv-x="541" 
d="M53 650h421v-70h-346v-221h325v-70h-325v-219h346v-70h-421v650zM238 710l46 98h66l-49 -98h-63z" />
    <glyph glyph-name="Ecircumflex" unicode="&#xca;" horiz-adv-x="541" 
d="M53 650h421v-70h-346v-221h325v-70h-325v-219h346v-70h-421v650zM227 808h86l62 -98h-64l-41 68l-41 -68h-64z" />
    <glyph glyph-name="Edieresis" unicode="&#xcb;" horiz-adv-x="541" 
d="M53 650h421v-70h-346v-221h325v-70h-325v-219h346v-70h-421v650zM321 742q0 16 12 26.5t27 10.5t27 -10.5t12 -26.5q0 -17 -12 -28q-12 -12 -27 -12t-27 11.5t-12 28.5zM142 742q0 16 12 26.5t27 10.5t27 -10.5t12 -26.5q0 -17 -12 -28q-12 -12 -27 -12t-27 11.5
t-12 28.5z" />
    <glyph glyph-name="Igrave" unicode="&#xcc;" horiz-adv-x="201" 
d="M77 808l45 -98h-62l-50 98h67zM128 0h-75v650h75v-650z" />
    <glyph glyph-name="Iacute" unicode="&#xcd;" horiz-adv-x="201" 
d="M104 808h66l-49 -98h-63zM128 0h-75v650h75v-650z" />
    <glyph glyph-name="Icircumflex" unicode="&#xce;" horiz-adv-x="201" 
d="M53 650h75v-650h-75v650zM47 808h86l62 -98h-64l-41 68l-41 -68h-64z" />
    <glyph glyph-name="Idieresis" unicode="&#xcf;" horiz-adv-x="201" 
d="M53 650h75v-650h-75v650zM-38 742q0 16 12 26.5t27 10.5t27 -10.5t12 -26.5q0 -17 -12 -28q-12 -12 -27 -12t-27 11.5t-12 28.5zM141 742q0 16 12 26.5t27 10.5t27 -10.5t12 -26.5q0 -17 -12 -28q-12 -12 -27 -12t-27 11.5t-12 28.5z" />
    <glyph glyph-name="Ntilde" unicode="&#xd1;" horiz-adv-x="625" 
d="M53 650h73l351 -521v521h76v-650h-74l-350 521v-521h-76v650zM169 708q1 40 23.5 66.5t59.5 26.5q39 0 68 -33q24 -26 46 -26q36 0 38 47h46q-1 -41 -22.5 -67t-61.5 -26t-70 34q-23 25 -43 25q-18 0 -27.5 -14.5t-10.5 -32.5h-46z" />
    <glyph glyph-name="Ograve" unicode="&#xd2;" horiz-adv-x="750" 
d="M134 565q90 93 234 93t234 -93.5t90 -239.5t-90 -239q-90 -94 -234 -94t-234.5 93.5t-90.5 239.5t91 240zM188 141q69 -73 180 -73q112 0 180.5 72t68.5 185t-68.5 185t-180.5 72q-111 0 -180.5 -72.5t-69.5 -184.5t70 -184zM355 808l45 -98h-62l-50 98h67z" />
    <glyph glyph-name="Oacute" unicode="&#xd3;" horiz-adv-x="750" 
d="M43 325q0 146 90.5 239.5t234.5 93.5t234 -93.5t90 -239.5t-90 -239q-90 -94 -234 -94t-234.5 93.5t-90.5 239.5zM188 141q69 -73 180 -73q112 0 180.5 72t68.5 185t-68.5 185t-180.5 72q-111 0 -180.5 -72.5t-69.5 -184.5t70 -184zM336 710l46 98h66l-49 -98h-63z" />
    <glyph glyph-name="Ocircumflex" unicode="&#xd4;" horiz-adv-x="750" 
d="M134 565q90 93 234 93t234 -93.5t90 -239.5t-90 -239q-90 -94 -234 -94t-234.5 93.5t-90.5 239.5t91 240zM118 325q0 -112 69.5 -184.5t180.5 -72.5q112 0 180.5 72t68.5 185t-68.5 185t-180.5 72q-111 0 -180.5 -72.5t-69.5 -184.5zM263 710l62 98h86l62 -98h-64l-41 68
l-41 -68h-64z" />
    <glyph glyph-name="Otilde" unicode="&#xd5;" horiz-adv-x="750" 
d="M134 565q90 93 234 93t234 -93.5t90 -239.5t-90 -239q-90 -94 -234 -94t-234.5 93.5t-90.5 239.5t91 240zM118 325q0 -112 69.5 -184.5t180.5 -72.5q112 0 180.5 72t68.5 185t-68.5 185t-180.5 72q-111 0 -180.5 -72.5t-69.5 -184.5zM227 708q1 40 23.5 66.5t59.5 26.5
q39 0 68 -33q24 -26 46 -26q36 0 38 47h46q-1 -41 -22.5 -67t-61.5 -26t-70 34q-23 25 -43 25q-18 0 -27.5 -14.5t-10.5 -32.5h-46z" />
    <glyph glyph-name="Odieresis" unicode="&#xd6;" horiz-adv-x="750" 
d="M134 565q90 93 234 93t234 -93.5t90 -239.5t-90 -239q-90 -94 -234 -94t-234.5 93.5t-90.5 239.5t91 240zM118 325q0 -112 69.5 -184.5t180.5 -72.5q112 0 180.5 72t68.5 185t-68.5 185t-180.5 72q-111 0 -180.5 -72.5t-69.5 -184.5zM240 742q0 16 12 26.5t27 10.5
t27 -10.5t12 -26.5q0 -17 -12 -28q-12 -12 -27 -12t-27 11.5t-12 28.5zM419 742q0 16 12 26.5t27 10.5t27 -10.5t12 -26.5q0 -17 -12 -28q-12 -12 -27 -12t-27 11.5t-12 28.5z" />
    <glyph glyph-name="multiply" unicode="&#xd7;" horiz-adv-x="457" 
d="M385 444l-122 -122l121 -121l-44 -44l-121 121l-121 -121l-45 42l122 122l-122 122l44 44l123 -122l121 121z" />
    <glyph glyph-name="Oslash" unicode="&#xd8;" horiz-adv-x="750" 
d="M593 573q99 -93 99 -248q0 -146 -90 -239.5t-234 -93.5q-106 0 -187 54l-36 -46h-67l62 79q-97 95 -97 246q0 146 90.5 239.5t234.5 93.5q104 0 183 -52l41 52h67zM118 325q0 -114 69 -185l318 406q-59 36 -137 36q-113 0 -181.5 -71.5t-68.5 -185.5zM368 68
q112 0 180.5 71.5t68.5 185.5q0 117 -71 188l-318 -407q62 -38 140 -38z" />
    <glyph glyph-name="Ugrave" unicode="&#xd9;" horiz-adv-x="614" 
d="M128 650v-417q0 -79 46 -123t123 -44t123 44t46 123v417h76v-424q0 -102 -66 -168t-179 -66t-178.5 66t-65.5 168v424h75zM223 808h67l45 -98h-62z" />
    <glyph glyph-name="Uacute" unicode="&#xda;" horiz-adv-x="614" 
d="M53 226v424h75v-417q0 -79 46 -123t123 -44t123 44t46 123v417h76v-424q0 -102 -66 -168t-179 -66t-178.5 66t-65.5 168zM271 710l46 98h66l-49 -98h-63z" />
    <glyph glyph-name="Ucircumflex" unicode="&#xdb;" horiz-adv-x="614" 
d="M53 226v424h75v-417q0 -79 46 -123t123 -44t123 44t46 123v417h76v-424q0 -102 -66 -168t-179 -66t-178.5 66t-65.5 168zM198 710l62 98h86l62 -98h-64l-41 68l-41 -68h-64z" />
    <glyph glyph-name="Udieresis" unicode="&#xdc;" horiz-adv-x="614" 
d="M53 650h75v-417q0 -79 46 -123t123 -44t123 44t46 123v417h76v-424q0 -102 -66 -168t-179 -66t-178.5 66t-65.5 168v424zM354 742q0 16 12 26.5t27 10.5t27 -10.5t12 -26.5q0 -17 -12 -28q-12 -12 -27 -12t-27 11.5t-12 28.5zM175 742q0 16 12 26.5t27 10.5t27 -10.5
t12 -26.5q0 -17 -12 -28q-12 -12 -27 -12t-27 11.5t-12 28.5z" />
    <glyph glyph-name="Yacute" unicode="&#xdd;" horiz-adv-x="588" 
d="M14 650h88l183 -287l183 287h87l-232 -365v-285h-75v283zM253 710l46 98h66l-49 -98h-63z" />
    <glyph glyph-name="germandbls" unicode="&#xdf;" horiz-adv-x="524" 
d="M378 348q49 -21 76 -65t27 -99q0 -80 -53.5 -132t-143.5 -52h-114v66h99q59 0 98.5 31t39.5 87q0 55 -40 86.5t-98 31.5h-99v63h84q59 0 96 31t37 83q0 54 -35 86t-90 32q-62 0 -99 -34t-37 -95v-468h-73v471q0 90 58 140t151 50q84 0 139 -47t55 -128q0 -96 -78 -138z
" />
    <glyph glyph-name="agrave" unicode="&#xe0;" 
d="M39 230q0 104 63 170.5t161 66.5q114 0 171 -90v83h73v-460h-73v83q-58 -91 -171 -91q-98 0 -161 67.5t-63 170.5zM109 230q0 -74 45 -121q45 -48 118 -48t117.5 47.5t44.5 121.5t-44.5 121t-117.5 47t-118 -47t-45 -121zM213 625h67l45 -98h-62z" />
    <glyph glyph-name="aacute" unicode="&#xe1;" 
d="M39 230q0 104 63 170.5t161 66.5q114 0 171 -90v83h73v-460h-73v83q-58 -91 -171 -91q-98 0 -161 67.5t-63 170.5zM109 230q0 -74 45 -121q45 -48 118 -48t117.5 47.5t44.5 121.5t-44.5 121t-117.5 47t-118 -47t-45 -121zM307 625h66l-49 -98h-63z" />
    <glyph glyph-name="acircumflex" unicode="&#xe2;" 
d="M39 230q0 104 63 170.5t161 66.5q114 0 171 -90v83h73v-460h-73v83q-58 -91 -171 -91q-98 0 -161 67.5t-63 170.5zM154 109q45 -48 118 -48t117.5 47.5t44.5 121.5t-44.5 121t-117.5 47t-118 -47t-45 -121t45 -121zM250 625h86l62 -98h-64l-41 68l-41 -68h-64z" />
    <glyph glyph-name="atilde" unicode="&#xe3;" 
d="M102 401q63 66 161 66q114 0 171 -90v83h73v-460h-73v83q-58 -91 -171 -91q-98 0 -161 67.5t-63 170.5q0 104 63 171zM154 109q45 -48 118 -48t117.5 47.5t44.5 121.5t-44.5 121t-117.5 47t-118 -47t-45 -121t45 -121zM176 592q22 26 59 26q39 0 68 -33q24 -26 46 -26
q36 0 38 47h46q-1 -41 -22.5 -67t-61.5 -26t-70 34q-23 25 -43 25q-18 0 -27.5 -14.5t-10.5 -32.5h-46q1 40 24 67z" />
    <glyph glyph-name="adieresis" unicode="&#xe4;" 
d="M39 230q0 104 63 170.5t161 66.5q114 0 171 -90v83h73v-460h-73v83q-58 -91 -171 -91q-98 0 -161 67.5t-63 170.5zM109 230q0 -74 45 -121q45 -48 118 -48t117.5 47.5t44.5 121.5t-44.5 121t-117.5 47t-118 -47t-45 -121zM356 586q12 10 27 10t27 -10.5t12 -26.5
q0 -17 -12 -28q-12 -12 -27 -12t-27 11.5t-12 28.5q0 16 12 27zM165 559q0 16 12 26.5t27 10.5t27 -10.5t12 -26.5q0 -17 -12 -28q-12 -12 -27 -12t-27 11.5t-12 28.5z" />
    <glyph glyph-name="aring" unicode="&#xe5;" 
d="M102 401q63 66 161 66q114 0 171 -90v83h73v-460h-73v83q-58 -91 -171 -91q-98 0 -161 67.5t-63 170.5q0 104 63 171zM109 230q0 -74 45 -121q45 -48 118 -48t117.5 47.5t44.5 121.5t-44.5 121t-117.5 47t-118 -47t-45 -121zM237 650q22 21 56 21q35 0 57 -21.5t22 -56.5
q0 -33 -22 -55q-23 -22 -57 -22t-56.5 22t-22.5 55q0 35 23 57zM264 566q10 -13 29 -13t29 12t10 28t-10 28t-29 12t-29 -12.5t-10 -27.5t10 -27z" />
    <glyph glyph-name="ae" unicode="&#xe6;" horiz-adv-x="918" 
d="M640 467q95 0 157 -67t62 -170v-25h-365q6 -69 47.5 -109.5t105.5 -40.5q92 0 139 71l52 -35q-65 -99 -192 -99q-76 0 -132 38t-80 100q-37 -138 -202 -138q-95 0 -144 28.5t-49 95.5q0 32 12 55.5t35 38t50.5 23.5t66 12.5t72.5 5t78 1.5h6h5h6q-1 89 -32.5 123.5
t-97.5 34.5q-101 0 -129 -71l-59 20q39 108 192 108q81 0 129 -34t61 -94q26 59 80 93.5t126 34.5zM644 408q-69 0 -108 -42.5t-43 -112.5h298q-4 71 -45 113t-102 42zM228 46q72 0 106.5 37t35.5 121q-140 -2 -175 -8q-84 -18 -86 -77q0 -40 29.5 -56.5t89.5 -16.5z" />
    <glyph glyph-name="ccedilla" unicode="&#xe7;" horiz-adv-x="508" 
d="M104 401q65 66 168 66q122 0 187 -92l-53 -40q-45 63 -132 63q-74 0 -119 -47t-45 -121t45 -121.5t119 -47.5q85 0 132 63l53 -39q-59 -84 -167 -92l-16 -28q63 -9 63 -57q0 -28 -20.5 -45t-56.5 -17q-32 0 -51 9v43q16 -12 51 -12t35 22t-40 22q-22 0 -32 -6v36q1 0 1 1
l20 32q-93 9 -150 74.5t-57 162.5q0 104 65 171z" />
    <glyph glyph-name="egrave" unicode="&#xe8;" horiz-adv-x="545" 
d="M102 401q62 67 164 67q98 0 159 -67t61 -171v-23h-377q7 -69 51 -111t112 -42q94 0 141 70l51 -37q-65 -96 -192 -96q-104 0 -168.5 67.5t-64.5 171.5t63 171zM109 257h310q-8 67 -49 109t-104 42q-66 0 -107.5 -41t-49.5 -110zM186 625h67l45 -98h-62z" />
    <glyph glyph-name="eacute" unicode="&#xe9;" horiz-adv-x="545" 
d="M102 401q62 67 164 67q98 0 159 -67t61 -171v-23h-377q7 -69 51 -111t112 -42q94 0 141 70l51 -37q-65 -96 -192 -96q-104 0 -168.5 67.5t-64.5 171.5t63 171zM109 257h310q-8 67 -49 109t-104 42q-66 0 -107.5 -41t-49.5 -110zM234 527l46 98h66l-49 -98h-63z" />
    <glyph glyph-name="ecircumflex" unicode="&#xea;" horiz-adv-x="545" 
d="M39 230q0 104 62.5 171t164.5 67q98 0 159 -67t61 -171v-23h-377q7 -69 51 -111t112 -42q94 0 141 70l51 -37q-65 -96 -192 -96q-104 0 -168.5 67.5t-64.5 171.5zM109 257h310q-8 67 -49 109t-104 42q-66 0 -107.5 -41t-49.5 -110zM223 625h86l62 -98h-64l-41 68l-41 -68
h-64z" />
    <glyph glyph-name="edieresis" unicode="&#xeb;" horiz-adv-x="545" 
d="M102 401q62 67 164 67q98 0 159 -67t61 -171v-23h-377q7 -69 51 -111t112 -42q94 0 141 70l51 -37q-65 -96 -192 -96q-104 0 -168.5 67.5t-64.5 171.5t63 171zM109 257h310q-8 67 -49 109t-104 42q-66 0 -107.5 -41t-49.5 -110zM150 586q12 10 27 10t27 -10.5t12 -26.5
q0 -17 -12 -28q-12 -12 -27 -12t-27 11.5t-12 28.5q0 16 12 27zM329 586q12 10 27 10t27 -10.5t12 -26.5q0 -17 -12 -28q-12 -12 -27 -12t-27 11.5t-12 28.5q0 16 12 27z" />
    <glyph glyph-name="igrave" unicode="&#xec;" horiz-adv-x="210" 
d="M82 625l45 -98h-62l-50 98h67zM131 0h-72v460h73z" />
    <glyph glyph-name="iacute" unicode="&#xed;" horiz-adv-x="210" 
d="M109 625h66l-49 -98h-63zM131 0h-72v460h73z" />
    <glyph glyph-name="icircumflex" unicode="&#xee;" horiz-adv-x="210" 
d="M59 460h73l-1 -460h-72v460zM52 625h86l62 -98h-64l-41 68l-41 -68h-64z" />
    <glyph glyph-name="idieresis" unicode="&#xef;" horiz-adv-x="210" 
d="M59 460h73l-1 -460h-72v460zM-33 559q0 16 12 26.5t27 10.5t27 -10.5t12 -26.5q0 -17 -12 -28q-12 -12 -27 -12t-27 11.5t-12 28.5zM146 559q0 16 12 26.5t27 10.5t27 -10.5t12 -26.5q0 -17 -12 -28q-12 -12 -27 -12t-27 11.5t-12 28.5z" />
    <glyph glyph-name="ntilde" unicode="&#xf1;" horiz-adv-x="529" 
d="M53 460h72v-62q50 69 148 69q76 0 129.5 -46.5t53.5 -137.5v-283h-72v273q0 63 -37.5 97t-92.5 34t-92 -34t-37 -97v-273h-72v460zM113 525q1 40 23.5 66.5t59.5 26.5q39 0 68 -33q24 -26 46 -26q36 0 38 47h46q-1 -41 -22.5 -67t-61.5 -26t-70 34q-23 25 -43 25
q-18 0 -27.5 -14.5t-10.5 -32.5h-46z" />
    <glyph glyph-name="ograve" unicode="&#xf2;" horiz-adv-x="565" 
d="M105 401q65 67 168 67t168.5 -67t65.5 -171q0 -103 -65 -171q-66 -68 -169 -68t-168.5 68t-65.5 171q0 104 66 171zM156 109q45 -48 117 -48t116.5 47.5t44.5 121.5t-44.5 121t-116.5 47t-117 -47.5t-45 -120.5t45 -121zM260 625l45 -98h-62l-50 98h67z" />
    <glyph glyph-name="oacute" unicode="&#xf3;" horiz-adv-x="565" 
d="M39 230q0 104 65.5 171t168.5 67t168.5 -67t65.5 -171q0 -103 -65 -171q-66 -68 -169 -68t-168.5 68t-65.5 171zM156 109q45 -48 117 -48t116.5 47.5t44.5 121.5t-44.5 121t-116.5 47t-117 -47.5t-45 -120.5t45 -121zM241 527l46 98h66l-49 -98h-63z" />
    <glyph glyph-name="ocircumflex" unicode="&#xf4;" horiz-adv-x="565" 
d="M105 401q65 67 168 67t168.5 -67t65.5 -171q0 -103 -65 -171q-66 -68 -169 -68t-168.5 68t-65.5 171q0 104 66 171zM111 230q0 -73 45 -121t117 -48t116.5 47.5t44.5 121.5t-44.5 121t-116.5 47t-117 -47.5t-45 -120.5zM168 527l62 98h86l62 -98h-64l-41 68l-41 -68h-64z
" />
    <glyph glyph-name="otilde" unicode="&#xf5;" horiz-adv-x="565" 
d="M105 401q65 67 168 67t168.5 -67t65.5 -171q0 -103 -65 -171q-66 -68 -169 -68t-168.5 68t-65.5 171q0 104 66 171zM111 230q0 -73 45 -121t117 -48t116.5 47.5t44.5 121.5t-44.5 121t-116.5 47t-117 -47.5t-45 -120.5zM132 525q1 40 23.5 66.5t59.5 26.5q39 0 68 -33
q24 -26 46 -26q36 0 38 47h46q-1 -41 -22.5 -67t-61.5 -26t-70 34q-23 25 -43 25q-18 0 -27.5 -14.5t-10.5 -32.5h-46z" />
    <glyph glyph-name="odieresis" unicode="&#xf6;" horiz-adv-x="565" 
d="M105 401q65 67 168 67t168.5 -67t65.5 -171q0 -103 -65 -171q-66 -68 -169 -68t-168.5 68t-65.5 171q0 104 66 171zM111 230q0 -73 45 -121t117 -48t116.5 47.5t44.5 121.5t-44.5 121t-116.5 47t-117 -47.5t-45 -120.5zM145 559q0 16 12 26.5t27 10.5t27 -10.5t12 -26.5
q0 -17 -12 -28q-12 -12 -27 -12t-27 11.5t-12 28.5zM324 559q0 16 12 26.5t27 10.5t27 -10.5t12 -26.5q0 -17 -12 -28q-12 -12 -27 -12t-27 11.5t-12 28.5z" />
    <glyph glyph-name="divide" unicode="&#xf7;" horiz-adv-x="511" 
d="M246 440q-19 0 -31.5 12.5t-12.5 30.5q0 19 12.5 31t31.5 12t31 -12t12 -31q0 -18 -12 -30.5t-31 -12.5zM53 351h385v-58h-385v58zM246 118q-19 0 -31.5 12t-12.5 31t12.5 31t31.5 12t31 -12t12 -31t-12 -31t-31 -12z" />
    <glyph glyph-name="oslash" unicode="&#xf8;" horiz-adv-x="565" 
d="M431 411q76 -68 76 -181q0 -103 -65.5 -171t-168.5 -68q-79 0 -137 41l-25 -32h-35l38 49q-75 69 -75 181q0 104 65.5 171t168.5 67q79 0 136 -40l25 32h35zM111 230q0 -78 48 -124l206 265q-40 27 -92 27q-72 0 -117 -47.5t-45 -120.5zM273 61q72 0 116.5 47.5
t44.5 121.5q0 78 -48 124l-206 -266q40 -27 93 -27z" />
    <glyph glyph-name="ugrave" unicode="&#xf9;" horiz-adv-x="529" 
d="M125 460v-275q0 -63 37.5 -97t92.5 -34t92 34t37 97v275h72v-460h-72v61q-50 -69 -148 -69q-76 0 -129.5 46.5t-53.5 137.5v284h72zM248 625l45 -98h-62l-50 98h67z" />
    <glyph glyph-name="uacute" unicode="&#xfa;" horiz-adv-x="529" 
d="M125 460v-275q0 -63 37.5 -97t92.5 -34t92 34t37 97v275h72v-460h-72v61q-50 -69 -148 -69q-76 0 -129.5 46.5t-53.5 137.5v284h72zM275 625h66l-49 -98h-63z" />
    <glyph glyph-name="ucircumflex" unicode="&#xfb;" horiz-adv-x="529" 
d="M53 460h72v-275q0 -63 37.5 -97t92.5 -34t92 34t37 97v275h72v-460h-72v61q-50 -69 -148 -69q-76 0 -129.5 46.5t-53.5 137.5v284zM156 527l62 98h86l62 -98h-64l-41 68l-41 -68h-64z" />
    <glyph glyph-name="udieresis" unicode="&#xfc;" horiz-adv-x="529" 
d="M53 460h72v-275q0 -63 37.5 -97t92.5 -34t92 34t37 97v275h72v-460h-72v61q-50 -69 -148 -69q-76 0 -129.5 46.5t-53.5 137.5v284zM133 559q0 16 12 26.5t27 10.5t27 -10.5t12 -26.5q0 -17 -12 -28q-12 -12 -27 -12t-27 11.5t-12 28.5zM324 586q12 10 27 10t27 -10.5
t12 -26.5q0 -17 -12 -28q-12 -12 -27 -12t-27 11.5t-12 28.5q0 16 12 27z" />
    <glyph glyph-name="yacute" unicode="&#xfd;" horiz-adv-x="478" 
d="M10 460h75l142 -360l143 360h75l-256 -644h-71l72 185zM195 527l46 98h66l-49 -98h-63z" />
    <glyph glyph-name="ydieresis" unicode="&#xff;" horiz-adv-x="478" 
d="M85 460l142 -360l143 360h75l-256 -644h-71l72 185l-180 459h75zM99 559q0 16 12 26.5t27 10.5t27 -10.5t12 -26.5q0 -17 -12 -28q-12 -12 -27 -12t-27 11.5t-12 28.5zM278 559q0 16 12 26.5t27 10.5t27 -10.5t12 -26.5q0 -17 -12 -28q-12 -12 -27 -12t-27 11.5t-12 28.5
z" />
    <glyph glyph-name="Amacron" unicode="&#x100;" horiz-adv-x="648" 
d="M23 0l267 650h58l267 -650h-80l-65 160h-302l-65 -160h-80zM441 230l-123 303l-122 -303h245zM405 759v-50h-173v50h173z" />
    <glyph glyph-name="amacron" unicode="&#x101;" 
d="M39 230q0 104 63 170.5t161 66.5q114 0 171 -90v83h73v-460h-73v83q-58 -91 -171 -91q-98 0 -161 67.5t-63 170.5zM109 230q0 -74 45 -121q45 -48 118 -48t117.5 47.5t44.5 121.5t-44.5 121t-117.5 47t-118 -47t-45 -121zM206 525v50h173v-50h-173z" />
    <glyph glyph-name="Abreve" unicode="&#x102;" horiz-adv-x="648" 
d="M290 650h58l267 -650h-80l-65 160h-302l-65 -160h-80zM196 230h245l-123 303zM270 799v-3q0 -20 13.5 -33.5t35.5 -13.5q21 0 34 14t13 33v3h46v-3q0 -40 -26.5 -65t-66.5 -25q-41 0 -68 25t-27 65v3h46z" />
    <glyph glyph-name="abreve" unicode="&#x103;" 
d="M102 401q63 66 161 66q114 0 171 -90v83h73v-460h-73v83q-58 -91 -171 -91q-98 0 -161 67.5t-63 170.5q0 104 63 171zM109 230q0 -74 45 -121q45 -48 118 -48t117.5 47.5t44.5 121.5t-44.5 121t-117.5 47t-118 -47t-45 -121zM198 616h46v-3q0 -20 13.5 -33.5t35.5 -13.5
q21 0 34 14t13 33v3h46v-3q0 -40 -26.5 -65t-66.5 -25q-41 0 -68 25t-27 65v3z" />
    <glyph glyph-name="Aogonek" unicode="&#x104;" horiz-adv-x="648" 
d="M555 -53q0 -14 7.5 -17.5t13.5 -3.5q12 0 33 7v-46q-19 -5 -36 -5q-21 0 -44 12t-23 43q0 35 34 63h-5l-65 160h-302l-65 -160h-80l267 650h58l267 -650h-28q-32 -27 -32 -53zM196 230h245l-123 303z" />
    <glyph glyph-name="aogonek" unicode="&#x105;" 
d="M39 230q0 104 63 170.5t161 66.5q114 0 171 -90v83h73v-454h1q-1 0 -1 -1v-5h-8q-38 -30 -38 -58q0 -14 7.5 -17.5t13.5 -3.5q12 0 33 7v-46q-19 -5 -36 -5q-21 0 -44 12t-23 43q0 40 41 68h-19v83q-58 -91 -171 -91q-98 0 -161 67.5t-63 170.5zM109 230q0 -74 45 -121
q45 -48 118 -48t117.5 47.5t44.5 121.5t-44.5 121t-117.5 47t-118 -47t-45 -121z" />
    <glyph glyph-name="Cacute" unicode="&#x106;" horiz-adv-x="682" 
d="M43 325q0 146 90.5 239.5t234.5 93.5q172 0 263 -131l-61 -44q-32 45 -84.5 72t-117.5 27q-111 0 -180.5 -72.5t-69.5 -184.5t69.5 -184.5t180.5 -72.5q64 0 117 27.5t85 73.5l61 -46q-91 -131 -263 -131q-144 0 -234.5 93.5t-90.5 239.5zM377 810h66l-49 -98h-63z" />
    <glyph glyph-name="cacute" unicode="&#x107;" horiz-adv-x="508" 
d="M104 401q65 66 168 66q122 0 187 -92l-53 -40q-45 63 -132 63q-74 0 -119 -47t-45 -121t45 -121.5t119 -47.5q85 0 132 63l53 -39q-64 -93 -187 -93q-103 0 -168 67t-65 171t65 171zM286 625h66l-49 -98h-63z" />
    <glyph glyph-name="Cdotaccent" unicode="&#x10a;" horiz-adv-x="682" 
d="M134 565q90 93 234 93q172 0 263 -131l-61 -44q-32 45 -84.5 72t-117.5 27q-111 0 -180.5 -72.5t-69.5 -184.5t69.5 -184.5t180.5 -72.5q64 0 117 27.5t85 73.5l61 -46q-91 -131 -263 -131q-144 0 -234.5 93.5t-90.5 239.5t91 240zM336 771q12 10 27 10t27 -10.5
t12 -26.5q0 -17 -12 -28q-12 -12 -27 -12t-27 11.5t-12 28.5q0 16 12 27z" />
    <glyph glyph-name="cdotaccent" unicode="&#x10b;" horiz-adv-x="508" 
d="M104 401q65 66 168 66q122 0 187 -92l-53 -40q-45 63 -132 63q-74 0 -119 -47t-45 -121t45 -121.5t119 -47.5q85 0 132 63l53 -39q-64 -93 -187 -93q-103 0 -168 67t-65 171t65 171zM245 586q12 10 27 10t27 -10.5t12 -26.5q0 -17 -12 -28q-12 -12 -27 -12t-27 11.5
t-12 28.5q0 16 12 27z" />
    <glyph glyph-name="Ccaron" unicode="&#x10c;" horiz-adv-x="682" 
d="M43 325q0 146 90.5 239.5t234.5 93.5q172 0 263 -131l-61 -44q-32 45 -84.5 72t-117.5 27q-111 0 -180.5 -72.5t-69.5 -184.5t69.5 -184.5t180.5 -72.5q64 0 117 27.5t85 73.5l61 -46q-91 -131 -263 -131q-144 0 -234.5 93.5t-90.5 239.5zM322 810l41 -67l41 67h64
l-62 -98h-86l-62 98h64z" />
    <glyph glyph-name="ccaron" unicode="&#x10d;" horiz-adv-x="508" 
d="M104 401q65 66 168 66q122 0 187 -92l-53 -40q-45 63 -132 63q-74 0 -119 -47t-45 -121t45 -121.5t119 -47.5q85 0 132 63l53 -39q-64 -93 -187 -93q-103 0 -168 67t-65 171t65 171zM167 625h64l41 -67l41 67h64l-62 -98h-86z" />
    <glyph glyph-name="Dcaron" unicode="&#x10e;" horiz-adv-x="651" 
d="M53 0v650h220q144 0 232.5 -90t88.5 -235t-88.5 -235t-232.5 -90h-220zM273 74q100 0 172.5 65.5t72.5 185.5t-72.5 185.5t-172.5 65.5h-145v-502h145zM155 809h64l41 -67l41 67h64l-62 -98h-86z" />
    <glyph glyph-name="dcaron" unicode="&#x10f;" 
d="M39 230q0 104 63 170.5t161 66.5q114 0 171 -90v273h73v-650h-73v83q-58 -91 -171 -91q-98 0 -161 67.5t-63 170.5zM109 230q0 -74 45 -121q45 -48 118 -48t117.5 47.5t44.5 121.5t-44.5 121t-117.5 47t-118 -47t-45 -121zM365 808h64l41 -67l41 67h64l-62 -98h-86z" />
    <glyph glyph-name="Dcroat" unicode="&#x110;" horiz-adv-x="653" 
d="M274 650q144 0 233 -90t89 -235t-89 -235t-233 -90h-221v287h-52v70h52v293h221zM275 75q63 0 118 26.5t91 85t36 138.5q0 119 -73 184.5t-173 65.5h-146v-218h131v-70h-131v-212h147z" />
    <glyph glyph-name="Emacron" unicode="&#x112;" horiz-adv-x="541" 
d="M53 650h421v-70h-346v-221h325v-70h-325v-219h346v-70h-421v650zM356 759v-50h-173v50h173z" />
    <glyph glyph-name="emacron" unicode="&#x113;" horiz-adv-x="545" 
d="M102 401q62 67 164 67q98 0 159 -67t61 -171v-23h-377q7 -69 51 -111t112 -42q94 0 141 70l51 -37q-65 -96 -192 -96q-104 0 -168.5 67.5t-64.5 171.5t63 171zM109 257h310q-8 67 -49 109t-104 42q-66 0 -107.5 -41t-49.5 -110zM179 575h173v-50h-173v50z" />
    <glyph glyph-name="Edotaccent" unicode="&#x116;" horiz-adv-x="541" 
d="M53 650h421v-70h-346v-221h325v-70h-325v-219h346v-70h-421v650zM231 742q0 16 12 26.5t27 10.5t27 -10.5t12 -26.5q0 -17 -12 -28q-12 -12 -27 -12t-27 11.5t-12 28.5z" />
    <glyph glyph-name="edotaccent" unicode="&#x117;" horiz-adv-x="545" 
d="M102 401q62 67 164 67q98 0 159 -67t61 -171v-23h-377q7 -69 51 -111t112 -42q94 0 141 70l51 -37q-65 -96 -192 -96q-104 0 -168.5 67.5t-64.5 171.5t63 171zM419 257q-8 67 -49 109t-104 42q-66 0 -107.5 -41t-49.5 -110h310zM227 559q0 16 12 26.5t27 10.5t27 -10.5
t12 -26.5q0 -17 -12 -28q-12 -12 -27 -12t-27 11.5t-12 28.5z" />
    <glyph glyph-name="Eogonek" unicode="&#x118;" horiz-adv-x="541" 
d="M53 650h421v-70h-346v-221h325v-70h-325v-219h346v-70h-14q-38 -30 -38 -58q0 -14 7.5 -17.5t13.5 -3.5q12 0 33 7v-46q-19 -5 -36 -5q-21 0 -44 12t-23 43q0 40 41 68h-361v650z" />
    <glyph glyph-name="eogonek" unicode="&#x119;" horiz-adv-x="545" 
d="M102 401q62 67 164 67q98 0 159 -67t61 -171v-23h-377q7 -69 51 -111t112 -42q94 0 141 70l51 -37q-57 -84 -166 -95q-40 -29 -40 -59q0 -14 7.5 -17.5t13.5 -3.5q12 0 33 7v-46q-19 -5 -36 -5q-21 0 -44 12t-23 43q0 40 42 69q-95 7 -153.5 73.5t-58.5 164.5
q0 104 63 171zM109 257h310q-8 67 -49 109t-104 42q-66 0 -107.5 -41t-49.5 -110z" />
    <glyph glyph-name="Ecaron" unicode="&#x11a;" horiz-adv-x="541" 
d="M53 650h421v-70h-346v-221h325v-70h-325v-219h346v-70h-421v650zM229 808l41 -67l41 67h64l-62 -98h-86l-62 98h64z" />
    <glyph glyph-name="ecaron" unicode="&#x11b;" horiz-adv-x="545" 
d="M39 230q0 104 62.5 171t164.5 67q98 0 159 -67t61 -171v-23h-377q7 -69 51 -111t112 -42q94 0 141 70l51 -37q-65 -96 -192 -96q-104 0 -168.5 67.5t-64.5 171.5zM109 257h310q-8 67 -49 109t-104 42q-66 0 -107.5 -41t-49.5 -110zM161 625h64l41 -67l41 67h64l-62 -98
h-86z" />
    <glyph glyph-name="Gbreve" unicode="&#x11e;" horiz-adv-x="743" 
d="M134 565q90 93 234 93q85 0 152.5 -34.5t110.5 -95.5l-62 -44q-70 98 -201 98q-111 0 -180.5 -72.5t-69.5 -184.5t69.5 -184.5t180.5 -72.5q93 0 155 55.5t72 148.5h-230v70h315v-32q-5 -141 -89 -229.5t-223 -88.5q-144 0 -234.5 93.5t-90.5 239.5t91 240zM276 799h46
v-3q0 -20 13.5 -33.5t35.5 -13.5q21 0 34 14t13 33v3h46v-3q0 -40 -26.5 -65t-66.5 -25q-41 0 -68 25t-27 65v3z" />
    <glyph glyph-name="gbreve" unicode="&#x11f;" 
d="M102 400q63 67 161 67q114 0 171 -90v83h73v-426q0 -100 -66 -162t-176 -62q-122 0 -190 81l49 41q53 -59 141 -59q70 0 119.5 41.5t49.5 119.5v49q-58 -91 -171 -91q-98 0 -161 67.5t-63 170.5t63 170zM154 109q45 -48 118 -48t117.5 47.5t44.5 121.5t-44.5 121
t-117.5 47t-118 -47t-45 -121t45 -121zM228 616v-3q0 -20 13.5 -33.5t35.5 -13.5q21 0 34 14t13 33v3h46v-3q0 -40 -26.5 -65t-66.5 -25q-41 0 -68 25t-27 65v3h46z" />
    <glyph glyph-name="Gdotaccent" unicode="&#x120;" horiz-adv-x="743" 
d="M134 565q90 93 234 93q85 0 152.5 -34.5t110.5 -95.5l-62 -44q-70 98 -201 98q-111 0 -180.5 -72.5t-69.5 -184.5t69.5 -184.5t180.5 -72.5q93 0 155 55.5t72 148.5h-230v70h315v-32q-5 -141 -89 -229.5t-223 -88.5q-144 0 -234.5 93.5t-90.5 239.5t91 240zM332 742
q0 16 12 26.5t27 10.5t27 -10.5t12 -26.5q0 -17 -12 -28q-12 -12 -27 -12t-27 11.5t-12 28.5z" />
    <glyph glyph-name="gdotaccent" unicode="&#x121;" 
d="M39 230q0 103 63 170t161 67q114 0 171 -90v83h73v-426q0 -100 -66 -162t-176 -62q-122 0 -190 81l49 41q53 -59 141 -59q70 0 119.5 41.5t49.5 119.5v49q-58 -91 -171 -91q-98 0 -161 67.5t-63 170.5zM109 230q0 -74 45 -121q45 -48 118 -48t117.5 47.5t44.5 121.5
t-44.5 121t-117.5 47t-118 -47t-45 -121zM250 586q12 10 27 10t27 -10.5t12 -26.5q0 -17 -12 -28q-12 -12 -27 -12t-27 11.5t-12 28.5q0 16 12 27z" />
    <glyph glyph-name="uni0122" unicode="&#x122;" horiz-adv-x="743" 
d="M43 325q0 146 90.5 239.5t234.5 93.5q85 0 152.5 -34.5t110.5 -95.5l-62 -44q-70 98 -201 98q-111 0 -180.5 -72.5t-69.5 -184.5t69.5 -184.5t180.5 -72.5q93 0 155 55.5t72 148.5h-230v70h315v-32q-5 -141 -89 -229.5t-223 -88.5q-144 0 -234.5 93.5t-90.5 239.5z
M295 -158l47 97h65l-51 -97h-61z" />
    <glyph glyph-name="uni0123" unicode="&#x123;" 
d="M39 230q0 103 63 170t161 67q114 0 171 -90v83h73v-426q0 -100 -66 -162t-176 -62q-122 0 -190 81l49 41q53 -59 141 -59q70 0 119.5 41.5t49.5 119.5v49q-58 -91 -171 -91q-98 0 -161 67.5t-63 170.5zM154 109q45 -48 118 -48t117.5 47.5t44.5 121.5t-44.5 121
t-117.5 47t-118 -47t-45 -121t45 -121zM238 558q0 8 2.5 16t8 15.5t9.5 12.5t10.5 12.5t8.5 9.5h39q-23 -26 -26 -32q26 -7 26 -34q0 -15 -10.5 -26t-27.5 -11q-18 0 -29 11t-11 26z" />
    <glyph glyph-name="Itilde" unicode="&#x128;" horiz-adv-x="201" 
d="M128 650v-650h-75v650h75zM-51 708q1 40 23.5 66.5t59.5 26.5q39 0 68 -33q24 -26 46 -26q36 0 38 47h46q-1 -41 -22.5 -67t-61.5 -26t-70 34q-23 25 -43 25q-18 0 -27.5 -14.5t-10.5 -32.5h-46z" />
    <glyph glyph-name="itilde" unicode="&#x129;" horiz-adv-x="210" 
d="M132 460l-1 -460h-72v460h73zM-46 525q1 40 23.5 66.5t59.5 26.5q39 0 68 -33q24 -26 46 -26q36 0 38 47h46q-1 -41 -22.5 -67t-61.5 -26t-70 34q-23 25 -43 25q-18 0 -27.5 -14.5t-10.5 -32.5h-46z" />
    <glyph glyph-name="Imacron" unicode="&#x12a;" horiz-adv-x="201" 
d="M3 759h173v-50h-173v50zM128 0h-75v650h75v-650z" />
    <glyph glyph-name="imacron" unicode="&#x12b;" horiz-adv-x="210" 
d="M8 575h173v-50h-173v50zM131 0h-72v460h73z" />
    <glyph glyph-name="Iogonek" unicode="&#x12e;" horiz-adv-x="201" 
d="M31 -69q0 40 42 69h-20v650h75v-650h-8q-40 -29 -40 -59q0 -14 7.5 -17.5t13.5 -3.5q12 0 33 7v-46q-19 -5 -36 -5q-21 0 -44 12t-23 43z" />
    <glyph glyph-name="iogonek" unicode="&#x12f;" horiz-adv-x="210" 
d="M35 -70q0 44 44 70h-20v460h73l-1 -460h-6q-41 -29 -41 -60q0 -14 7.5 -17.5t13.5 -3.5q12 0 33 7v-46q-19 -5 -36 -5q-21 0 -44 12t-23 43zM68 586q12 10 27 10t27 -10.5t12 -26.5q0 -17 -12 -28q-12 -12 -27 -12t-27 11.5t-12 28.5q0 16 12 27z" />
    <glyph glyph-name="Idotaccent" unicode="&#x130;" horiz-adv-x="201" 
d="M53 0v650h75v-650h-75zM51 742q0 16 12 26.5t27 10.5t27 -10.5t12 -26.5q0 -17 -12 -28q-12 -12 -27 -12t-27 11.5t-12 28.5z" />
    <glyph glyph-name="dotlessi" unicode="&#x131;" horiz-adv-x="210" 
d="M131 0h-72v460h73z" />
    <glyph glyph-name="uni0136" unicode="&#x136;" horiz-adv-x="534" 
d="M53 0v650h75v-297l271 297h90l-295 -325l308 -325h-91l-283 298v-298h-75zM231 -59h65l-51 -97h-61z" />
    <glyph glyph-name="uni0137" unicode="&#x137;" horiz-adv-x="467" 
d="M125 650v-387l201 197h88l-222 -218l243 -242h-88l-222 221v-221h-72v650h72zM154 -156l47 97h65l-51 -97h-61z" />
    <glyph glyph-name="Lacute" unicode="&#x139;" horiz-adv-x="524" 
d="M104 808h66l-49 -98h-63zM128 70h344v-70h-419v650h75v-580z" />
    <glyph glyph-name="lacute" unicode="&#x13a;" horiz-adv-x="198" 
d="M103 808h66l-49 -98h-63zM125 0h-72v650h72v-650z" />
    <glyph glyph-name="uni013B" unicode="&#x13b;" horiz-adv-x="524" 
d="M128 70h344v-70h-419v650h75v-580zM233 -59h65l-51 -97h-61z" />
    <glyph glyph-name="uni013C" unicode="&#x13c;" horiz-adv-x="198" 
d="M125 0h-72v650h72v-650zM60 -59h65l-51 -97h-61z" />
    <glyph glyph-name="Lcaron" unicode="&#x13d;" horiz-adv-x="524" 
d="M53 650h75v-580h344v-70h-419v650zM49 808l41 -67l41 67h64l-62 -98h-86l-62 98h64z" />
    <glyph glyph-name="lcaron" unicode="&#x13e;" horiz-adv-x="198" 
d="M125 650v-650h-72v650h72zM48 808l41 -67l41 67h64l-62 -98h-86l-62 98h64z" />
    <glyph glyph-name="Lslash" unicode="&#x141;" horiz-adv-x="523" 
d="M128 70h343v-70h-418v304l-52 -19v72l52 19v274h75v-247l134 48v-72l-134 -48v-261z" />
    <glyph glyph-name="lslash" unicode="&#x142;" horiz-adv-x="198" 
d="M187 405v-61l-62 -22v-322h-72v297l-50 -18v61l50 18v292h72v-267z" />
    <glyph glyph-name="Nacute" unicode="&#x143;" horiz-adv-x="625" 
d="M53 650h73l351 -521v521h76v-650h-74l-350 521v-521h-76v650zM324 808h66l-49 -98h-63z" />
    <glyph glyph-name="nacute" unicode="&#x144;" horiz-adv-x="529" 
d="M53 460h72v-62q50 69 148 69q76 0 129.5 -46.5t53.5 -137.5v-283h-72v273q0 63 -37.5 97t-92.5 34t-92 -34t-37 -97v-273h-72v460zM268 625h66l-49 -98h-63z" />
    <glyph glyph-name="uni0145" unicode="&#x145;" horiz-adv-x="625" 
d="M53 650h73l351 -521v521h76v-650h-74l-350 521v-521h-76v650zM234 -156l47 97h65l-51 -97h-61z" />
    <glyph glyph-name="uni0146" unicode="&#x146;" horiz-adv-x="529" 
d="M53 460h72v-62q50 69 148 69q76 0 129.5 -46.5t53.5 -137.5v-283h-72v273q0 63 -37.5 97t-92.5 34t-92 -34t-37 -97v-273h-72v460zM178 -156l47 97h65l-51 -97h-61z" />
    <glyph glyph-name="Ncaron" unicode="&#x147;" horiz-adv-x="625" 
d="M53 650h73l351 -521v521h76v-650h-74l-350 521v-521h-76v650zM269 808l41 -67l41 67h64l-62 -98h-86l-62 98h64z" />
    <glyph glyph-name="ncaron" unicode="&#x148;" horiz-adv-x="529" 
d="M53 460h72v-62q50 69 148 69q76 0 129.5 -46.5t53.5 -137.5v-283h-72v273q0 63 -37.5 97t-92.5 34t-92 -34t-37 -97v-273h-72v460zM149 625h64l41 -67l41 67h64l-62 -98h-86z" />
    <glyph glyph-name="Omacron" unicode="&#x14c;" horiz-adv-x="750" 
d="M134 565q90 93 234 93t234 -93.5t90 -239.5t-90 -239q-90 -94 -234 -94t-234.5 93.5t-90.5 239.5t91 240zM188 141q69 -73 180 -73q112 0 180.5 72t68.5 185t-68.5 185t-180.5 72q-111 0 -180.5 -72.5t-69.5 -184.5t70 -184zM281 709v50h173v-50h-173z" />
    <glyph glyph-name="omacron" unicode="&#x14d;" horiz-adv-x="565" 
d="M39 230q0 104 65.5 171t168.5 67t168.5 -67t65.5 -171q0 -103 -65 -171q-66 -68 -169 -68t-168.5 68t-65.5 171zM111 230q0 -73 45 -121t117 -48t116.5 47.5t44.5 121.5t-44.5 121t-116.5 47t-117 -47.5t-45 -120.5zM359 575v-50h-173v50h173z" />
    <glyph glyph-name="Ohungarumlaut" unicode="&#x150;" horiz-adv-x="750" 
d="M134 565q90 93 234 93t234 -93.5t90 -239.5t-90 -239q-90 -94 -234 -94t-234.5 93.5t-90.5 239.5t91 240zM188 141q69 -73 180 -73q112 0 180.5 72t68.5 185t-68.5 185t-180.5 72q-111 0 -180.5 -72.5t-69.5 -184.5t70 -184zM405 710l47 98h67l-59 -98h-55zM308 808h66
l-58 -98h-55z" />
    <glyph glyph-name="ohungarumlaut" unicode="&#x151;" horiz-adv-x="565" 
d="M105 401q65 67 168 67t168.5 -67t65.5 -171q0 -103 -65 -171q-66 -68 -169 -68t-168.5 68t-65.5 171q0 104 66 171zM156 109q45 -48 117 -48t116.5 47.5t44.5 121.5t-44.5 121t-116.5 47t-117 -47.5t-45 -120.5t45 -121zM357 625h67l-59 -98h-55zM213 625h66l-58 -98h-55
z" />
    <glyph glyph-name="OE" unicode="&#x152;" horiz-adv-x="1087" 
d="M1020 580h-325v-222h304v-70h-304v-218h325v-70h-400v105q-92 -113 -250 -113q-144 0 -235.5 94t-91.5 239q0 146 91 239.5t236 93.5q160 0 250 -112v104h400v-70zM370 68q111 0 179 72t68 185t-68 185t-179 72q-114 0 -183 -72t-69 -185t69 -185t183 -72z" />
    <glyph glyph-name="oe" unicode="&#x153;" horiz-adv-x="936" 
d="M657 468q98 0 159 -67t61 -171v-23h-378q7 -69 51.5 -111t111.5 -42q95 0 142 70l52 -33q-31 -47 -81.5 -73.5t-112.5 -26.5q-65 0 -116 28t-81 78q-30 -49 -80.5 -77t-114.5 -28q-102 0 -166.5 67.5t-64.5 170.5t64.5 170t166.5 67q63 0 113.5 -27.5t80.5 -75.5
q62 104 193 104zM657 408q-66 0 -108 -41t-50 -110h311q-8 67 -49 109t-104 42zM270 63q73 0 115.5 46t42.5 121q0 74 -42.5 120t-115.5 46t-116.5 -46t-43.5 -120t43.5 -120.5t116.5 -46.5z" />
    <glyph glyph-name="Racute" unicode="&#x154;" horiz-adv-x="603" 
d="M53 650h300q76 0 131 -55.5t55 -142.5q0 -81 -47.5 -134.5t-116.5 -62.5l176 -255h-89l-175 254h-159v-254h-75v650zM128 327h214q53 0 87 36t34 89q0 52 -34 88t-87 36h-214v-249zM232 710l46 98h66l-49 -98h-63z" />
    <glyph glyph-name="racute" unicode="&#x155;" horiz-adv-x="330" 
d="M53 460h72v-85q50 90 162 92v-69q-64 -1 -113 -37.5t-49 -112.5v-248h-72v460zM139 527l46 98h66l-49 -98h-63z" />
    <glyph glyph-name="uni0156" unicode="&#x156;" horiz-adv-x="603" 
d="M53 650h300q76 0 131 -55.5t55 -142.5q0 -81 -47.5 -134.5t-116.5 -62.5l176 -255h-89l-175 254h-159v-254h-75v650zM128 327h214q53 0 87 36t34 89q0 52 -34 88t-87 36h-214v-249zM196 -156l47 97h65l-51 -97h-61z" />
    <glyph glyph-name="uni0157" unicode="&#x157;" horiz-adv-x="330" 
d="M125 460v-85q50 90 162 92v-69q-64 -1 -113 -37.5t-49 -112.5v-248h-72v460h72zM59 -59h65l-51 -97h-61z" />
    <glyph glyph-name="Rcaron" unicode="&#x158;" horiz-adv-x="603" 
d="M53 650h300q76 0 131 -55.5t55 -142.5q0 -81 -47.5 -134.5t-116.5 -62.5l176 -255h-89l-175 254h-159v-254h-75v650zM128 327h214q53 0 87 36t34 89q0 52 -34 88t-87 36h-214v-249zM159 808h64l41 -67l41 67h64l-62 -98h-86z" />
    <glyph glyph-name="rcaron" unicode="&#x159;" horiz-adv-x="330" 
d="M125 460v-85q50 90 162 92v-69q-64 -1 -113 -37.5t-49 -112.5v-248h-72v460h72zM130 625l41 -67l41 67h64l-62 -98h-86l-62 98h64z" />
    <glyph glyph-name="Sacute" unicode="&#x15a;" horiz-adv-x="601" 
d="M33 139l62 41q18 -48 75.5 -82t135.5 -34q159 0 159 117q0 20 -10.5 37.5t-23.5 28t-37.5 21t-39 15t-42 11.5t-33.5 9q-3 1 -27 7t-35 9t-35.5 12t-38 17t-33 22t-29.5 29t-17.5 36.5t-7.5 45.5q0 88 67 134t176 46q88 0 155 -37t85 -92l-62 -37q-14 38 -66 64.5
t-120 26.5q-72 0 -111 -27t-39 -75q0 -17 6 -30.5t19 -24t25 -18.5t32.5 -14.5t33 -10t35 -9t29.5 -7.5q1 0 25.5 -7t35 -10.5t36 -13t39.5 -18t34 -23.5t30.5 -30.5t18.5 -37.5t8 -46q0 -95 -65.5 -145t-183.5 -50q-101 0 -171.5 42t-94.5 108zM267 710l46 98h66l-49 -98
h-63z" />
    <glyph glyph-name="sacute" unicode="&#x15b;" horiz-adv-x="451" 
d="M29 95l52 31q12 -32 51.5 -55t91.5 -23q108 0 108 78q0 14 -7 25.5t-15 19t-25.5 14.5t-26 10t-29 8t-23.5 6l-18 5q-19 5 -25.5 7t-25.5 9t-28 12.5t-23.5 16t-21.5 21.5t-12.5 26.5t-5.5 32.5q0 63 48 96.5t126 33.5q67 0 114 -26t63 -65l-51 -30q-10 26 -46 44.5
t-82 18.5q-48 0 -74.5 -18t-26.5 -51q0 -11 4 -20.5t12.5 -16.5t16.5 -12.5t21.5 -10t21.5 -7t23 -6.5t20 -5q2 0 15 -4t19 -5.5t20.5 -6.5t23 -8.5t21.5 -10.5t21 -14t18 -16.5t15 -19.5t9 -23.5t4 -27.5q0 -68 -46.5 -104t-132.5 -36q-75 0 -125.5 29.5t-68.5 77.5z
M188 527l46 98h66l-49 -98h-63z" />
    <glyph glyph-name="Scedilla" unicode="&#x15e;" horiz-adv-x="601" 
d="M95 180q18 -48 75.5 -82t135.5 -34q159 0 159 117q0 20 -10.5 37.5t-23.5 28t-37.5 21t-39 15t-42 11.5t-33.5 9q-3 1 -27 7t-35 9t-35.5 12t-38 17t-33 22t-29.5 29t-17.5 36.5t-7.5 45.5q0 88 67 134t176 46q88 0 155 -37t85 -92l-62 -37q-14 38 -66 64.5t-120 26.5
q-72 0 -111 -27t-39 -75q0 -17 6 -30.5t19 -24t25 -18.5t32.5 -14.5t33 -10t35 -9t29.5 -7.5q1 0 25.5 -7t35 -10.5t36 -13t39.5 -18t34 -23.5t30.5 -30.5t18.5 -37.5t8 -46q0 -90 -58.5 -139.5t-164.5 -54.5l-18 -32q63 -9 63 -57q0 -28 -20.5 -45t-56.5 -17q-32 0 -51 9
v43q16 -12 51 -12t35 22t-40 22q-22 0 -32 -6v36q1 0 1 1l22 35q-94 4 -158.5 45.5t-87.5 104.5z" />
    <glyph glyph-name="scedilla" unicode="&#x15f;" horiz-adv-x="451" 
d="M29 95l52 31q12 -32 51.5 -55t91.5 -23q108 0 108 78q0 14 -7 25.5t-15 19t-25.5 14.5t-26 10t-29 8t-23.5 6l-18 5q-19 5 -25.5 7t-25.5 9t-28 12.5t-23.5 16t-21.5 21.5t-12.5 26.5t-5.5 32.5q0 63 48 96.5t126 33.5q67 0 114 -26t63 -65l-51 -30q-10 26 -46 44.5
t-82 18.5q-48 0 -74.5 -18t-26.5 -51q0 -11 4 -20.5t12.5 -16.5t16.5 -12.5t21.5 -10t21.5 -7t23 -6.5t20 -5q2 0 15 -4t19 -5.5t20.5 -6.5t23 -8.5t21.5 -10.5t21 -14t18 -16.5t15 -19.5t9 -23.5t4 -27.5q0 -64 -41 -99.5t-117 -39.5l-16 -28q63 -9 63 -57q0 -28 -20.5 -45
t-56.5 -17q-32 0 -51 9v43q16 -12 51 -12t35 22t-40 22q-21 0 -32 -6v36q1 0 1 1l20 32q-65 5 -109 33.5t-60 72.5z" />
    <glyph glyph-name="Scaron" unicode="&#x160;" horiz-adv-x="601" 
d="M33 139l62 41q18 -48 75.5 -82t135.5 -34q159 0 159 117q0 20 -10.5 37.5t-23.5 28t-37.5 21t-39 15t-42 11.5t-33.5 9q-3 1 -27 7t-35 9t-35.5 12t-38 17t-33 22t-29.5 29t-17.5 36.5t-7.5 45.5q0 88 67 134t176 46q88 0 155 -37t85 -92l-62 -37q-14 38 -66 64.5
t-120 26.5q-72 0 -111 -27t-39 -75q0 -17 6 -30.5t19 -24t25 -18.5t32.5 -14.5t33 -10t35 -9t29.5 -7.5q1 0 25.5 -7t35 -10.5t36 -13t39.5 -18t34 -23.5t30.5 -30.5t18.5 -37.5t8 -46q0 -95 -65.5 -145t-183.5 -50q-101 0 -171.5 42t-94.5 108zM194 808h64l41 -67l41 67h64
l-62 -98h-86z" />
    <glyph glyph-name="scaron" unicode="&#x161;" horiz-adv-x="451" 
d="M29 95l52 31q12 -32 51.5 -55t91.5 -23q108 0 108 78q0 14 -7 25.5t-15 19t-25.5 14.5t-26 10t-29 8t-23.5 6l-18 5q-19 5 -25.5 7t-25.5 9t-28 12.5t-23.5 16t-21.5 21.5t-12.5 26.5t-5.5 32.5q0 63 48 96.5t126 33.5q67 0 114 -26t63 -65l-51 -30q-10 26 -46 44.5
t-82 18.5q-48 0 -74.5 -18t-26.5 -51q0 -11 4 -20.5t12.5 -16.5t16.5 -12.5t21.5 -10t21.5 -7t23 -6.5t20 -5q2 0 15 -4t19 -5.5t20.5 -6.5t23 -8.5t21.5 -10.5t21 -14t18 -16.5t15 -19.5t9 -23.5t4 -27.5q0 -68 -46.5 -104t-132.5 -36q-75 0 -125.5 29.5t-68.5 77.5z
M179 625l41 -67l41 67h64l-62 -98h-86l-62 98h64z" />
    <glyph glyph-name="uni0162" unicode="&#x162;" horiz-adv-x="585" 
d="M33 650h499v-70h-212v-580h-14l-20 -34q63 -9 63 -57q0 -28 -20.5 -45t-56.5 -17q-32 0 -51 9v43q16 -12 51 -12t35 22t-40 22q-21 0 -32 -6v36q1 0 1 1l24 38h-15v580h-212v70z" />
    <glyph glyph-name="uni0163" unicode="&#x163;" horiz-adv-x="316" 
d="M23 403v57h64v140h73v-140h110v-57h-110v-283q0 -61 64 -61h41v-59h-42l-19 -32q63 -9 63 -57q0 -28 -20.5 -45t-56.5 -17q-32 0 -51 9v43q16 -12 51 -12t35 22t-40 22q-21 0 -32 -6v36q1 0 1 1l23 37q-90 13 -90 109v293h-64z" />
    <glyph glyph-name="Tcaron" unicode="&#x164;" horiz-adv-x="585" 
d="M33 650h499v-70h-212v-580h-75v580h-212v70zM178 808h64l41 -67l41 67h64l-62 -98h-86z" />
    <glyph glyph-name="tcaron" unicode="&#x165;" horiz-adv-x="316" 
d="M23 403v57h64v140h73v-140h110v-57h-110v-283q0 -61 64 -61h41v-59h-67q-53 0 -82 29t-29 81v293h-64zM80 748l41 -67l41 67h64l-62 -98h-86l-62 98h64z" />
    <glyph glyph-name="Tbar" unicode="&#x166;" horiz-adv-x="597" 
d="M532 580h-212v-236h139v-70h-139v-274h-75v274h-139v70h139v236h-212v70h499v-70z" />
    <glyph glyph-name="Utilde" unicode="&#x168;" horiz-adv-x="614" 
d="M53 650h75v-417q0 -79 46 -123t123 -44t123 44t46 123v417h76v-424q0 -102 -66 -168t-179 -66t-178.5 66t-65.5 168v424zM162 708q1 40 23.5 66.5t59.5 26.5q39 0 68 -33q24 -26 46 -26q36 0 38 47h46q-1 -41 -22.5 -67t-61.5 -26t-70 34q-23 25 -43 25
q-18 0 -27.5 -14.5t-10.5 -32.5h-46z" />
    <glyph glyph-name="utilde" unicode="&#x169;" horiz-adv-x="529" 
d="M53 460h72v-275q0 -63 37.5 -97t92.5 -34t92 34t37 97v275h72v-460h-72v61q-50 -69 -148 -69q-76 0 -129.5 46.5t-53.5 137.5v284zM120 525q1 40 23.5 66.5t59.5 26.5q39 0 68 -33q24 -26 46 -26q36 0 38 47h46q-1 -41 -22.5 -67t-61.5 -26t-70 34q-23 25 -43 25
q-18 0 -27.5 -14.5t-10.5 -32.5h-46z" />
    <glyph glyph-name="Umacron" unicode="&#x16a;" horiz-adv-x="614" 
d="M53 226v424h75v-417q0 -79 46 -123t123 -44t123 44t46 123v417h76v-424q0 -102 -66 -168t-179 -66t-178.5 66t-65.5 168zM216 709v50h173v-50h-173z" />
    <glyph glyph-name="umacron" unicode="&#x16b;" horiz-adv-x="529" 
d="M125 460v-275q0 -63 37.5 -97t92.5 -34t92 34t37 97v275h72v-460h-72v61q-50 -69 -148 -69q-76 0 -129.5 46.5t-53.5 137.5v284h72zM174 575h173v-50h-173v50z" />
    <glyph glyph-name="Uring" unicode="&#x16e;" horiz-adv-x="614" 
d="M128 650v-417q0 -79 46 -123t123 -44t123 44t46 123v417h76v-424q0 -102 -66 -168t-179 -66t-178.5 66t-65.5 168v424h75zM224 776q0 35 22.5 56.5t56.5 21.5q35 0 57 -21.5t22 -56.5q0 -33 -22 -55q-23 -22 -57 -22t-56.5 22t-22.5 55zM274 749q10 -13 29 -13t29 12
t10 28t-10 28t-29 12t-29 -12.5t-10 -27.5t10 -27z" />
    <glyph glyph-name="uring" unicode="&#x16f;" horiz-adv-x="529" 
d="M53 460h72v-275q0 -63 37.5 -97t92.5 -34t92 34t37 97v275h72v-460h-72v61q-50 -69 -148 -69q-76 0 -129.5 46.5t-53.5 137.5v284zM205 650q22 21 56 21q35 0 57 -21.5t22 -56.5q0 -33 -22 -55q-23 -22 -57 -22t-56.5 22t-22.5 55q0 35 23 57zM222 593q0 -15 10 -27
q10 -13 29 -13t29 12t10 28t-10 28t-29 12t-29 -12.5t-10 -27.5z" />
    <glyph glyph-name="Uhungarumlaut" unicode="&#x170;" horiz-adv-x="614" 
d="M53 226v424h75v-417q0 -79 46 -123t123 -44t123 44t46 123v417h76v-424q0 -102 -66 -168t-179 -66t-178.5 66t-65.5 168zM387 808h67l-59 -98h-55zM243 808h66l-58 -98h-55z" />
    <glyph glyph-name="uhungarumlaut" unicode="&#x171;" horiz-adv-x="529" 
d="M53 460h72v-275q0 -63 37.5 -97t92.5 -34t92 34t37 97v275h72v-460h-72v61q-50 -69 -148 -69q-76 0 -129.5 46.5t-53.5 137.5v284zM298 527l47 98h67l-59 -98h-55zM201 625h66l-58 -98h-55z" />
    <glyph glyph-name="Uogonek" unicode="&#x172;" horiz-adv-x="614" 
d="M53 650h75v-417q0 -79 46 -123t123 -44t123 44t46 123v417h76v-424q0 -96 -59 -161t-162 -72q-34 -27 -34 -55q0 -14 7.5 -17.5t13.5 -3.5q12 0 33 7v-46q-19 -5 -36 -5q-21 0 -44 12t-23 43q0 35 36 65q-103 7 -162 72t-59 161v424z" />
    <glyph glyph-name="uogonek" unicode="&#x173;" horiz-adv-x="529" 
d="M125 460v-275q0 -63 37.5 -97t92.5 -34t92 34t37 97v275h72v-460h-11q-36 -26 -36 -56q0 -14 7.5 -17.5t13.5 -3.5q12 0 33 7v-46q-19 -5 -36 -5q-21 0 -44 12t-23 43q0 39 38 66h-14v61q-50 -69 -148 -69q-76 0 -129.5 46.5t-53.5 137.5v284h72z" />
    <glyph glyph-name="Wcircumflex" unicode="&#x174;" horiz-adv-x="946" 
d="M103 650l169 -510l170 510h56l168 -501l166 501h81l-217 -650h-64l-164 493l-165 -493h-63l-217 650h80zM425 808h86l62 -98h-64l-41 68l-41 -68h-64z" />
    <glyph glyph-name="wcircumflex" unicode="&#x175;" horiz-adv-x="730" 
d="M13 460h75l117 -358l124 358h52l123 -358l118 358h75l-154 -460h-72l-116 341l-118 -341h-72zM311 625h86l62 -98h-64l-41 68l-41 -68h-64z" />
    <glyph glyph-name="Ycircumflex" unicode="&#x176;" horiz-adv-x="588" 
d="M102 650l183 -287l183 287h87l-232 -365v-285h-75v283l-234 367h88zM242 808h86l62 -98h-64l-41 68l-41 -68h-64z" />
    <glyph glyph-name="ycircumflex" unicode="&#x177;" horiz-adv-x="478" 
d="M10 460h75l142 -360l143 360h75l-256 -644h-71l72 185zM184 625h86l62 -98h-64l-41 68l-41 -68h-64z" />
    <glyph glyph-name="Ydieresis" unicode="&#x178;" horiz-adv-x="588" 
d="M14 650h88l183 -287l183 287h87l-232 -365v-285h-75v283zM169 769q12 10 27 10t27 -10.5t12 -26.5q0 -17 -12 -28q-12 -12 -27 -12t-27 11.5t-12 28.5q0 16 12 27zM336 742q0 16 12 26.5t27 10.5t27 -10.5t12 -26.5q0 -17 -12 -28q-12 -12 -27 -12t-27 11.5t-12 28.5z
" />
    <glyph glyph-name="Zacute" unicode="&#x179;" horiz-adv-x="539" 
d="M284 808h66l-49 -98h-63zM487 585l-353 -514l346 -1v-70h-437v65l352 515h-346v70h438v-65z" />
    <glyph glyph-name="zacute" unicode="&#x17a;" horiz-adv-x="429" 
d="M219 625h66l-49 -98h-63zM377 460v-57l-254 -342h250v-61h-340v56l254 343h-250v61h340z" />
    <glyph glyph-name="Zdotaccent" unicode="&#x17b;" horiz-adv-x="539" 
d="M43 65l352 515h-346v70h438v-65l-353 -514l346 -1v-70h-437v65zM231 742q0 16 12 26.5t27 10.5t27 -10.5t12 -26.5q0 -17 -12 -28q-12 -12 -27 -12t-27 11.5t-12 28.5z" />
    <glyph glyph-name="zdotaccent" unicode="&#x17c;" horiz-adv-x="429" 
d="M287 399h-250v61h340v-57l-254 -342h250v-61h-340v56zM166 559q0 16 12 26.5t27 10.5t27 -10.5t12 -26.5q0 -17 -12 -28q-12 -12 -27 -12t-27 11.5t-12 28.5z" />
    <glyph glyph-name="Zcaron" unicode="&#x17d;" horiz-adv-x="539" 
d="M43 0v65l352 515h-346v70h438v-65l-353 -514l346 -1v-70h-437zM229 808l41 -67l41 67h64l-62 -98h-86l-62 98h64z" />
    <glyph glyph-name="zcaron" unicode="&#x17e;" horiz-adv-x="429" 
d="M33 56l254 343h-250v61h340v-57l-254 -342h250v-61h-340v56zM164 625l41 -67l41 67h64l-62 -98h-86l-62 98h64z" />
    <glyph glyph-name="uni01CD" unicode="&#x1cd;" horiz-adv-x="648" 
d="M290 650h58l267 -650h-80l-65 160h-302l-65 -160h-80zM441 230l-123 303l-122 -303h245zM278 808l41 -67l41 67h64l-62 -98h-86l-62 98h64z" />
    <glyph glyph-name="uni01CE" unicode="&#x1ce;" 
d="M39 230q0 104 63 170.5t161 66.5q114 0 171 -90v83h73v-460h-73v83q-58 -91 -171 -91q-98 0 -161 67.5t-63 170.5zM154 109q45 -48 118 -48t117.5 47.5t44.5 121.5t-44.5 121t-117.5 47t-118 -47t-45 -121t45 -121zM188 625h64l41 -67l41 67h64l-62 -98h-86z" />
    <glyph glyph-name="uni01CF" unicode="&#x1cf;" horiz-adv-x="201" 
d="M128 650v-650h-75v650h75zM49 808l41 -67l41 67h64l-62 -98h-86l-62 98h64z" />
    <glyph glyph-name="uni01D0" unicode="&#x1d0;" horiz-adv-x="210" 
d="M132 460l-1 -460h-72v460h73zM54 625l41 -67l41 67h64l-62 -98h-86l-62 98h64z" />
    <glyph glyph-name="uni01D1" unicode="&#x1d1;" horiz-adv-x="750" 
d="M134 565q90 93 234 93t234 -93.5t90 -239.5t-90 -239q-90 -94 -234 -94t-234.5 93.5t-90.5 239.5t91 240zM118 325q0 -112 69.5 -184.5t180.5 -72.5q112 0 180.5 72t68.5 185t-68.5 185t-180.5 72q-111 0 -180.5 -72.5t-69.5 -184.5zM263 808h64l41 -67l41 67h64l-62 -98
h-86z" />
    <glyph glyph-name="uni01D2" unicode="&#x1d2;" horiz-adv-x="565" 
d="M39 230q0 104 65.5 171t168.5 67t168.5 -67t65.5 -171q0 -103 -65 -171q-66 -68 -169 -68t-168.5 68t-65.5 171zM156 109q45 -48 117 -48t116.5 47.5t44.5 121.5t-44.5 121t-116.5 47t-117 -47.5t-45 -120.5t45 -121zM168 625h64l41 -67l41 67h64l-62 -98h-86z" />
    <glyph glyph-name="uni01D3" unicode="&#x1d3;" horiz-adv-x="614" 
d="M128 650v-417q0 -79 46 -123t123 -44t123 44t46 123v417h76v-424q0 -102 -66 -168t-179 -66t-178.5 66t-65.5 168v424h75zM198 808h64l41 -67l41 67h64l-62 -98h-86z" />
    <glyph glyph-name="uni01D4" unicode="&#x1d4;" horiz-adv-x="529" 
d="M53 460h72v-275q0 -63 37.5 -97t92.5 -34t92 34t37 97v275h72v-460h-72v61q-50 -69 -148 -69q-76 0 -129.5 46.5t-53.5 137.5v284zM220 625l41 -67l41 67h64l-62 -98h-86l-62 98h64z" />
    <glyph glyph-name="Gcaron" unicode="&#x1e6;" horiz-adv-x="743" 
d="M43 325q0 146 90.5 239.5t234.5 93.5q85 0 152.5 -34.5t110.5 -95.5l-62 -44q-70 98 -201 98q-111 0 -180.5 -72.5t-69.5 -184.5t69.5 -184.5t180.5 -72.5q93 0 155 55.5t72 148.5h-230v70h315v-32q-5 -141 -89 -229.5t-223 -88.5q-144 0 -234.5 93.5t-90.5 239.5z
M330 808l41 -67l41 67h64l-62 -98h-86l-62 98h64z" />
    <glyph glyph-name="gcaron" unicode="&#x1e7;" 
d="M102 400q63 67 161 67q114 0 171 -90v83h73v-426q0 -100 -66 -162t-176 -62q-122 0 -190 81l49 41q53 -59 141 -59q70 0 119.5 41.5t49.5 119.5v49q-58 -91 -171 -91q-98 0 -161 67.5t-63 170.5t63 170zM109 230q0 -74 45 -121q45 -48 118 -48t117.5 47.5t44.5 121.5
t-44.5 121t-117.5 47t-118 -47t-45 -121zM172 625h64l41 -67l41 67h64l-62 -98h-86z" />
    <glyph glyph-name="uni0218" unicode="&#x218;" horiz-adv-x="601" 
d="M33 139l62 41q18 -48 75.5 -82t135.5 -34q159 0 159 117q0 20 -10.5 37.5t-23.5 28t-37.5 21t-39 15t-42 11.5t-33.5 9q-3 1 -27 7t-35 9t-35.5 12t-38 17t-33 22t-29.5 29t-17.5 36.5t-7.5 45.5q0 88 67 134t176 46q88 0 155 -37t85 -92l-62 -37q-14 38 -66 64.5
t-120 26.5q-72 0 -111 -27t-39 -75q0 -17 6 -30.5t19 -24t25 -18.5t32.5 -14.5t33 -10t35 -9t29.5 -7.5q1 0 25.5 -7t35 -10.5t36 -13t39.5 -18t34 -23.5t30.5 -30.5t18.5 -37.5t8 -46q0 -95 -65.5 -145t-183.5 -50q-101 0 -171.5 42t-94.5 108zM227 -163l47 97h65l-51 -97
h-61z" />
    <glyph glyph-name="uni0219" unicode="&#x219;" horiz-adv-x="451" 
d="M29 95l52 31q12 -32 51.5 -55t91.5 -23q108 0 108 78q0 14 -7 25.5t-15 19t-25.5 14.5t-26 10t-29 8t-23.5 6l-18 5q-19 5 -25.5 7t-25.5 9t-28 12.5t-23.5 16t-21.5 21.5t-12.5 26.5t-5.5 32.5q0 63 48 96.5t126 33.5q67 0 114 -26t63 -65l-51 -30q-10 26 -46 44.5
t-82 18.5q-48 0 -74.5 -18t-26.5 -51q0 -11 4 -20.5t12.5 -16.5t16.5 -12.5t21.5 -10t21.5 -7t23 -6.5t20 -5q2 0 15 -4t19 -5.5t20.5 -6.5t23 -8.5t21.5 -10.5t21 -14t18 -16.5t15 -19.5t9 -23.5t4 -27.5q0 -68 -46.5 -104t-132.5 -36q-75 0 -125.5 29.5t-68.5 77.5z
M148 -160l47 97h65l-51 -97h-61z" />
    <glyph glyph-name="uni021A" unicode="&#x21a;" horiz-adv-x="585" 
d="M532 650v-70h-212v-580h-75v580h-212v70h499zM206 -155l47 97h65l-51 -97h-61z" />
    <glyph glyph-name="uni021B" unicode="&#x21b;" horiz-adv-x="316" 
d="M23 403v57h64v140h73v-140h110v-57h-110v-283q0 -61 64 -61h41v-59h-67q-53 0 -82 29t-29 81v293h-64zM124 -153l47 97h65l-51 -97h-61z" />
    <glyph glyph-name="circumflex" unicode="&#x2c6;" horiz-adv-x="250" 
d="M230 552h-64l-41 68l-41 -68h-64l62 98h86z" />
    <glyph glyph-name="caron" unicode="&#x2c7;" horiz-adv-x="250" 
d="M166 650h64l-62 -98h-86l-62 98h64l41 -67z" />
    <glyph glyph-name="breve" unicode="&#x2d8;" horiz-adv-x="220" 
d="M200 650v-3q0 -42 -25 -65.5t-64 -23.5t-65 24t-26 65v3h46v-3q0 -21 12 -33.5t33 -12.5t32 12.5t11 33.5v3h46z" />
    <glyph glyph-name="dotaccent" unicode="&#x2d9;" horiz-adv-x="118" 
d="M59 592q-15 0 -27 11.5t-12 28.5q0 16 12 26.5t27 10.5t27 -10.5t12 -26.5q0 -17 -12 -28.5t-27 -11.5z" />
    <glyph glyph-name="ring" unicode="&#x2da;" horiz-adv-x="198" 
d="M103 502q-35 0 -59 23t-24 57q0 36 23.5 59t59.5 23t59 -23t23 -59q0 -34 -23.5 -57t-58.5 -23zM103 539q21 0 32 13t11 30q0 18 -11 31t-32 13t-32 -13t-11 -31q0 -17 11 -30t32 -13z" />
    <glyph glyph-name="ogonek" unicode="&#x2db;" horiz-adv-x="141" 
d="M120 -124q-44 -12 -72 3.5t-28 46.5q0 25 15.5 45t33.5 29h43q-46 -34 -46 -64q0 -14 11 -19t43 5v-46z" />
    <glyph glyph-name="tilde" unicode="&#x2dc;" horiz-adv-x="321" 
d="M20 578q1 40 23.5 66.5t59.5 26.5q39 0 68 -33q24 -26 46 -26q36 0 38 47h46q-1 -41 -22.5 -67t-61.5 -26t-70 34q-23 25 -43 25q-18 0 -27.5 -14.5t-10.5 -32.5h-46z" />
    <glyph glyph-name="hungarumlaut" unicode="&#x2dd;" horiz-adv-x="298" 
d="M67 650h66l-58 -98h-55zM211 650h67l-59 -98h-55z" />
    <glyph glyph-name="gravecomb" unicode="&#x300;" horiz-adv-x="0" 
d="M-65 650l45 -98h-62l-50 98h67z" />
    <glyph glyph-name="acutecomb" unicode="&#x301;" horiz-adv-x="0" 
d="M-86 650h66l-49 -98h-63z" />
    <glyph glyph-name="uni0302" unicode="&#x302;" horiz-adv-x="0" 
d="M-168 650h86l62 -98h-64l-41 68l-41 -68h-64z" />
    <glyph glyph-name="tildecomb" unicode="&#x303;" horiz-adv-x="0" 
d="M-301 578q1 40 23.5 66.5t59.5 26.5q39 0 68 -33q24 -26 46 -26q36 0 38 47h46q-1 -41 -22.5 -67t-61.5 -26t-70 34q-23 25 -43 25q-18 0 -27.5 -14.5t-10.5 -32.5h-46z" />
    <glyph glyph-name="uni0304" unicode="&#x304;" horiz-adv-x="0" 
d="M-193 650h173v-50h-173v50z" />
    <glyph glyph-name="uni0306" unicode="&#x306;" horiz-adv-x="0" 
d="M-208 650h46v-3q0 -20 13.5 -33.5t35.5 -13.5q21 0 34 14t13 33v3h46v-3q0 -40 -26.5 -65t-66.5 -25q-41 0 -68 25t-27 65v3z" />
    <glyph glyph-name="uni0307" unicode="&#x307;" horiz-adv-x="0" 
d="M-98 632q0 16 12 26.5t27 10.5t27 -10.5t12 -26.5q0 -17 -12 -28q-12 -12 -27 -12t-27 11.5t-12 28.5z" />
    <glyph glyph-name="uni0308" unicode="&#x308;" horiz-adv-x="0" 
d="M-101 632q0 16 12 26.5t27 10.5t27 -10.5t12 -26.5q0 -17 -12 -28q-12 -12 -27 -12t-27 11.5t-12 28.5zM-280 632q0 16 12 26.5t27 10.5t27 -10.5t12 -26.5q0 -17 -12 -28q-12 -12 -27 -12t-27 11.5t-12 28.5z" />
    <glyph glyph-name="uni030A" unicode="&#x30a;" horiz-adv-x="0" 
d="M-178 586q0 35 22.5 56.5t56.5 21.5q35 0 57 -21.5t22 -56.5q0 -33 -23 -55q-22 -22 -56 -22t-56.5 22t-22.5 55zM-138 586q0 -15 10 -27q10 -13 29 -13t29 12t10 28t-10 28t-29 12t-29 -12.5t-10 -27.5z" />
    <glyph glyph-name="uni030B" unicode="&#x30b;" horiz-adv-x="0" 
d="M-134 552l47 98h67l-59 -98h-55zM-278 552l47 98h66l-58 -98h-55z" />
    <glyph glyph-name="uni030C" unicode="&#x30c;" horiz-adv-x="0" 
d="M-166 650l41 -67l41 67h64l-62 -98h-86l-62 98h64z" />
    <glyph glyph-name="uni0312" unicode="&#x312;" horiz-adv-x="0" 
d="M-97 623q3 8 8.5 15.5t9.5 12.5t10.5 12.5t8.5 9.5h39q-23 -26 -26 -32q26 -7 26 -34q0 -15 -10.5 -26t-27.5 -11q-18 0 -29 11t-11 26q0 8 2 16z" />
    <glyph glyph-name="dotbelowcomb" unicode="&#x323;" horiz-adv-x="0" 
d="M-98 -38q0 17 12 27.5t27 10.5t27 -10.5t12 -27.5t-12 -28t-27 -11t-27 11t-12 28z" />
    <glyph glyph-name="uni0326" unicode="&#x326;" horiz-adv-x="0" 
d="M-85 0h65l-51 -97h-61z" />
    <glyph glyph-name="uni0327" unicode="&#x327;" horiz-adv-x="0" 
d="M-148 -148v43q16 -12 51 -12t35 22t-40 22q-22 0 -32 -6v36q1 0 1 1l26 42h46l-22 -38q63 -9 63 -57q0 -28 -20.5 -45t-56.5 -17q-32 0 -51 9z" />
    <glyph glyph-name="uni0328" unicode="&#x328;" horiz-adv-x="0" 
d="M-108 -29q16 20 35 29h45q-47 -31 -47 -64q0 -14 7.5 -17.5t13.5 -3.5q12 0 33 7v-46q-19 -5 -36 -5q-21 0 -44 12t-23 43q0 25 16 45z" />
    <glyph glyph-name="uni0331" unicode="&#x331;" horiz-adv-x="0" 
d="M-188 0h168v-50h-168v50z" />
    <glyph glyph-name="Gamma" unicode="&#x393;" horiz-adv-x="465" 
d="M392 650v-70h-266v-580h-73v650h339z" />
    <glyph glyph-name="uni0394" unicode="&#x394;" horiz-adv-x="658" 
d="M350 650l236 -584v-66h-533v66l235 584h62zM132 66h374l-188 470z" />
    <glyph glyph-name="Sigma" unicode="&#x3a3;" horiz-adv-x="593" 
d="M520 650v-70h-348l255 -258l-254 -252h347v-70h-467v57l273 265l-273 273v55h467z" />
    <glyph glyph-name="Phi" unicode="&#x3a6;" horiz-adv-x="779" 
d="M706 326q0 -121 -78.5 -187t-216.5 -73v-69h-63v69q-137 7 -216 73.5t-79 186.5q0 119 79 185.5t216 73.5v68h63v-68q138 -7 216.5 -73t78.5 -186zM126 326q0 -82 56.5 -131t165.5 -55v371q-109 -6 -165.5 -54.5t-56.5 -130.5zM411 140q110 6 166 54.5t56 131.5t-56 131
t-166 54v-371z" />
    <glyph glyph-name="Psi" unicode="&#x3a8;" horiz-adv-x="706" 
d="M560 650h74v-197q0 -134 -70 -203t-190 -76v-174h-62v174q-120 8 -189.5 77t-69.5 203v196h73v-196q0 -105 47 -154.5t139 -55.5v406h62v-406q92 6 139 55.5t47 154.5v196z" />
    <glyph glyph-name="uni03A9" unicode="&#x3a9;" horiz-adv-x="786" 
d="M586 74h128v-70h-265v71q88 31 135.5 100.5t47.5 153.5q0 105 -66 180t-182 75t-183 -75t-67 -180q0 -83 47.5 -152.5t134.5 -99.5v-73h-263v70h129q-122 98 -122 251q0 146 90 239.5t234 93.5t233 -93.5t89 -239.5q0 -153 -120 -251z" />
    <glyph glyph-name="uni1E04" unicode="&#x1e04;" horiz-adv-x="603" 
d="M53 0v650h299q78 0 129.5 -47t51.5 -127q0 -96 -77 -139q46 -19 73.5 -60t27.5 -96q0 -80 -54 -130.5t-131 -50.5h-319zM362 70q53 0 85.5 33.5t32.5 82.5q0 50 -33 83t-85 33h-234v-232h234zM128 366h213q52 0 83.5 29t31.5 78q0 48 -31.5 77.5t-83.5 29.5h-213v-214z
M228 -90q0 17 12 27.5t27 10.5t27 -10.5t12 -27.5t-12 -28t-27 -11t-27 11t-12 28z" />
    <glyph glyph-name="uni1E05" unicode="&#x1e05;" 
d="M53 650h72v-273q57 90 171 90q98 0 161.5 -67t63.5 -170t-63.5 -170.5t-161.5 -67.5q-113 0 -171 91v-83h-72v650zM125 230q0 -74 45 -121q44 -48 117 -48t118 47.5t45 121.5t-45 121t-118 47t-117.5 -47t-44.5 -121zM253 -98q0 17 12 27.5t27 10.5t27 -10.5t12 -27.5
t-12 -28t-27 -11t-27 11t-12 28z" />
    <glyph glyph-name="uni1E0C" unicode="&#x1e0c;" horiz-adv-x="651" 
d="M273 650q144 0 232.5 -90t88.5 -235t-88.5 -235t-232.5 -90h-220v650h220zM273 74q100 0 172.5 65.5t72.5 185.5t-72.5 185.5t-172.5 65.5h-145v-502h145zM220 -90q0 17 12 27.5t27 10.5t27 -10.5t12 -27.5t-12 -28t-27 -11t-27 11t-12 28z" />
    <glyph glyph-name="uni1E0D" unicode="&#x1e0d;" 
d="M39 230q0 104 63 170.5t161 66.5q114 0 171 -90v273h73v-650h-73v83q-58 -91 -171 -91q-98 0 -161 67.5t-63 170.5zM154 109q45 -48 118 -48t117.5 47.5t44.5 121.5t-44.5 121t-117.5 47t-118 -47t-45 -121t45 -121zM250 -71q12 11 27 11t27 -10.5t12 -27.5t-12 -28
t-27 -11t-27 11t-12 28t12 27z" />
    <glyph glyph-name="uni1E24" unicode="&#x1e24;" horiz-adv-x="628" 
d="M128 650v-289h352v289h76v-650h-76v288h-352v-288h-75v650h75zM262 -88q0 17 12 27.5t27 10.5t27 -10.5t12 -27.5t-12 -28t-27 -11t-27 11t-12 28z" />
    <glyph glyph-name="uni1E25" unicode="&#x1e25;" horiz-adv-x="529" 
d="M53 650h72v-252q50 69 148 69q76 0 129.5 -46.5t53.5 -137.5v-283h-72v273q0 63 -37.5 97t-92.5 34t-92 -34t-37 -97v-273h-72v650zM233 -63q12 11 27 11t27 -10.5t12 -27.5t-12 -28t-27 -11t-27 11t-12 28t12 27z" />
    <glyph glyph-name="uni1E36" unicode="&#x1e36;" horiz-adv-x="524" 
d="M53 0v650h75v-580h344v-70h-419zM223 -90q0 17 12 27.5t27 10.5t27 -10.5t12 -27.5t-12 -28t-27 -11t-27 11t-12 28z" />
    <glyph glyph-name="uni1E37" unicode="&#x1e37;" horiz-adv-x="198" 
d="M53 0v650h72v-650h-72zM50 -90q0 17 12 27.5t27 10.5t27 -10.5t12 -27.5t-12 -28t-27 -11t-27 11t-12 28z" />
    <glyph glyph-name="uni1E3E" unicode="&#x1e3e;" horiz-adv-x="744" 
d="M53 0v650h80l229 -456l229 456h80v-650h-75v505l-208 -425h-52l-208 425v-505h-75zM377 808h66l-49 -98h-63z" />
    <glyph glyph-name="uni1E3F" unicode="&#x1e3f;" horiz-adv-x="815" 
d="M53 460h72v-59q47 66 137 66q110 0 152 -86q45 86 157 86q72 0 121.5 -44.5t49.5 -139.5v-283h-72v275q0 64 -34.5 95.5t-84.5 31.5t-83.5 -31.5t-33.5 -95.5v-275h-73v275q0 64 -34.5 95.5t-83.5 31.5q-50 0 -84 -31.5t-34 -95.5v-275h-72v460zM365 532l46 98h66
l-49 -98h-63z" />
    <glyph glyph-name="uni1E44" unicode="&#x1e44;" horiz-adv-x="625" 
d="M53 0v650h73l351 -521v521h76v-650h-74l-350 521v-521h-76zM271 742q0 16 12 26.5t27 10.5t27 -10.5t12 -26.5q0 -17 -12 -28q-12 -12 -27 -12t-27 11.5t-12 28.5z" />
    <glyph glyph-name="uni1E45" unicode="&#x1e45;" horiz-adv-x="529" 
d="M53 460h72v-62q50 69 148 69q76 0 129.5 -46.5t53.5 -137.5v-283h-72v273q0 63 -37.5 97t-92.5 34t-92 -34t-37 -97v-273h-72v460zM215 559q0 16 12 26.5t27 10.5t27 -10.5t12 -26.5q0 -17 -12 -28q-12 -12 -27 -12t-27 11.5t-12 28.5z" />
    <glyph glyph-name="uni1E46" unicode="&#x1e46;" horiz-adv-x="625" 
d="M53 0v650h73l351 -521v521h76v-650h-74l-350 521v-521h-76zM271 -90q0 17 12 27.5t27 10.5t27 -10.5t12 -27.5t-12 -28t-27 -11t-27 11t-12 28z" />
    <glyph glyph-name="uni1E47" unicode="&#x1e47;" horiz-adv-x="529" 
d="M53 460h72v-62q50 69 148 69q76 0 129.5 -46.5t53.5 -137.5v-283h-72v273q0 63 -37.5 97t-92.5 34t-92 -34t-37 -97v-273h-72v460zM227 -63q12 11 27 11t27 -10.5t12 -27.5t-12 -28t-27 -11t-27 11t-12 28t12 27z" />
    <glyph glyph-name="uni1E62" unicode="&#x1e62;" horiz-adv-x="601" 
d="M33 139l62 41q18 -48 75.5 -82t135.5 -34q159 0 159 117q0 20 -10.5 37.5t-23.5 28t-37.5 21t-39 15t-42 11.5t-33.5 9q-3 1 -27 7t-35 9t-35.5 12t-38 17t-33 22t-29.5 29t-17.5 36.5t-7.5 45.5q0 88 67 134t176 46q88 0 155 -37t85 -92l-62 -37q-14 38 -66 64.5
t-120 26.5q-72 0 -111 -27t-39 -75q0 -17 6 -30.5t19 -24t25 -18.5t32.5 -14.5t33 -10t35 -9t29.5 -7.5q1 0 25.5 -7t35 -10.5t36 -13t39.5 -18t34 -23.5t30.5 -30.5t18.5 -37.5t8 -46q0 -95 -65.5 -145t-183.5 -50q-101 0 -171.5 42t-94.5 108zM264 -97q0 17 12 27.5
t27 10.5t27 -10.5t12 -27.5t-12 -28t-27 -11t-27 11t-12 28z" />
    <glyph glyph-name="uni1E6C" unicode="&#x1e6c;" horiz-adv-x="585" 
d="M33 650h499v-70h-212v-580h-75v580h-212v70zM243 -89q0 17 12 27.5t27 10.5t27 -10.5t12 -27.5t-12 -28t-27 -11t-27 11t-12 28z" />
    <glyph glyph-name="uni1E6D" unicode="&#x1e6d;" horiz-adv-x="316" 
d="M23 403v57h64v140h73v-140h110v-57h-110v-283q0 -61 64 -61h41v-59h-67q-53 0 -82 29t-29 81v293h-64zM173 -60q12 11 27 11t27 -10.5t12 -27.5t-12 -28t-27 -11t-27 11t-12 28t12 27z" />
    <glyph glyph-name="Wgrave" unicode="&#x1e80;" horiz-adv-x="946" 
d="M103 650l169 -510l170 510h56l168 -501l166 501h81l-217 -650h-64l-164 493l-165 -493h-63l-217 650h80zM455 808l45 -98h-62l-50 98h67z" />
    <glyph glyph-name="wgrave" unicode="&#x1e81;" horiz-adv-x="730" 
d="M13 460h75l117 -358l124 358h52l123 -358l118 358h75l-154 -460h-72l-116 341l-118 -341h-72zM341 625l45 -98h-62l-50 98h67z" />
    <glyph glyph-name="Wacute" unicode="&#x1e82;" horiz-adv-x="946" 
d="M103 650l169 -510l170 510h56l168 -501l166 501h81l-217 -650h-64l-164 493l-165 -493h-63l-217 650h80zM482 808h66l-49 -98h-63z" />
    <glyph glyph-name="wacute" unicode="&#x1e83;" horiz-adv-x="730" 
d="M13 460h75l117 -358l124 358h52l123 -358l118 358h75l-154 -460h-72l-116 341l-118 -341h-72zM368 625h66l-49 -98h-63z" />
    <glyph glyph-name="Wdieresis" unicode="&#x1e84;" horiz-adv-x="946" 
d="M103 650l169 -510l170 510h56l168 -501l166 501h81l-217 -650h-64l-164 493l-165 -493h-63l-217 650h80zM531 769q12 10 27 10t27 -10.5t12 -26.5q0 -17 -12 -28q-12 -12 -27 -12t-27 11.5t-12 28.5q0 16 12 27zM340 742q0 16 12 26.5t27 10.5t27 -10.5t12 -26.5
q0 -17 -12 -28q-12 -12 -27 -12t-27 11.5t-12 28.5z" />
    <glyph glyph-name="wdieresis" unicode="&#x1e85;" horiz-adv-x="730" 
d="M13 460h75l117 -358l124 358h52l123 -358l118 358h75l-154 -460h-72l-116 341l-118 -341h-72zM417 586q12 10 27 10t27 -10.5t12 -26.5q0 -17 -12 -28q-12 -12 -27 -12t-27 11.5t-12 28.5q0 16 12 27zM226 559q0 16 12 26.5t27 10.5t27 -10.5t12 -26.5q0 -17 -12 -28
q-12 -12 -27 -12t-27 11.5t-12 28.5z" />
    <glyph glyph-name="uni1E92" unicode="&#x1e92;" horiz-adv-x="539" 
d="M43 65l352 515h-346v70h438v-65l-353 -514l346 -1v-70h-437v65zM227 -90q0 17 12 27.5t27 10.5t27 -10.5t12 -27.5t-12 -28t-27 -11t-27 11t-12 28z" />
    <glyph glyph-name="uni1E93" unicode="&#x1e93;" horiz-adv-x="429" 
d="M287 399h-250v61h340v-57l-254 -342h250v-61h-340v56zM166 -90q0 17 12 27.5t27 10.5t27 -10.5t12 -27.5t-12 -28t-27 -11t-27 11t-12 28z" />
    <glyph glyph-name="uni1EA0" unicode="&#x1ea0;" horiz-adv-x="648" 
d="M290 650h58l267 -650h-80l-65 160h-302l-65 -160h-80zM441 230l-123 303l-122 -303h245zM284 -90q0 17 12 27.5t27 10.5t27 -10.5t12 -27.5t-12 -28t-27 -11t-27 11t-12 28z" />
    <glyph glyph-name="uni1EA1" unicode="&#x1ea1;" 
d="M39 230q0 104 63 170.5t161 66.5q114 0 171 -90v83h73v-460h-73v83q-58 -91 -171 -91q-98 0 -161 67.5t-63 170.5zM154 109q45 -48 118 -48t117.5 47.5t44.5 121.5t-44.5 121t-117.5 47t-118 -47t-45 -121t45 -121zM266 -66q12 11 27 11t27 -10.5t12 -27.5t-12 -28
t-27 -11t-27 11t-12 28t12 27z" />
    <glyph glyph-name="uni1EB8" unicode="&#x1eb8;" horiz-adv-x="541" 
d="M53 650h421v-70h-346v-221h325v-70h-325v-219h346v-70h-421v650zM231 -88q0 17 12 27.5t27 10.5t27 -10.5t12 -27.5t-12 -28t-27 -11t-27 11t-12 28z" />
    <glyph glyph-name="uni1EB9" unicode="&#x1eb9;" horiz-adv-x="545" 
d="M39 230q0 104 62.5 171t164.5 67q98 0 159 -67t61 -171v-23h-377q7 -69 51 -111t112 -42q94 0 141 70l51 -37q-65 -96 -192 -96q-104 0 -168.5 67.5t-64.5 171.5zM109 257h310q-8 67 -49 109t-104 42q-66 0 -107.5 -41t-49.5 -110zM231 -95q0 17 12 27.5t27 10.5
t27 -10.5t12 -27.5t-12 -28t-27 -11t-27 11t-12 28z" />
    <glyph glyph-name="uni1EBC" unicode="&#x1ebc;" horiz-adv-x="541" 
d="M53 650h421v-70h-346v-221h325v-70h-325v-219h346v-70h-421v650zM153 775q22 26 59 26q39 0 68 -33q24 -26 46 -26q36 0 38 47h46q-1 -41 -22.5 -67t-61.5 -26t-70 34q-23 25 -43 25q-18 0 -27.5 -14.5t-10.5 -32.5h-46q1 40 24 67z" />
    <glyph glyph-name="uni1EBD" unicode="&#x1ebd;" horiz-adv-x="545" 
d="M39 230q0 104 62.5 171t164.5 67q98 0 159 -67t61 -171v-23h-377q7 -69 51 -111t112 -42q94 0 141 70l51 -37q-65 -96 -192 -96q-104 0 -168.5 67.5t-64.5 171.5zM419 257q-8 67 -49 109t-104 42q-66 0 -107.5 -41t-49.5 -110h310zM125 525q1 40 23.5 66.5t59.5 26.5
q39 0 68 -33q24 -26 46 -26q36 0 38 47h46q-1 -41 -22.5 -67t-61.5 -26t-70 34q-23 25 -43 25q-18 0 -27.5 -14.5t-10.5 -32.5h-46z" />
    <glyph glyph-name="uni1ECA" unicode="&#x1eca;" horiz-adv-x="201" 
d="M53 0v650h75v-650h-75zM51 -90q0 17 12 27.5t27 10.5t27 -10.5t12 -27.5t-12 -28t-27 -11t-27 11t-12 28z" />
    <glyph glyph-name="uni1ECB" unicode="&#x1ecb;" horiz-adv-x="214" 
d="M61 460h73l-1 -460h-72v460zM66 634q13 12 31 12t31 -12t13 -31t-13 -32q-14 -13 -31 -13t-30.5 13t-13.5 32t13 31zM70 -71q12 11 27 11t27 -10.5t12 -27.5t-12 -28t-27 -11t-27 11t-12 28t12 27z" />
    <glyph glyph-name="uni1ECC" unicode="&#x1ecc;" horiz-adv-x="750" 
d="M134 565q90 93 234 93t234 -93.5t90 -239.5t-90 -239q-90 -94 -234 -94t-234.5 93.5t-90.5 239.5t91 240zM188 141q69 -73 180 -73q112 0 180.5 72t68.5 185t-68.5 185t-180.5 72q-111 0 -180.5 -72.5t-69.5 -184.5t70 -184zM341 -70q12 11 27 11t27 -10.5t12 -27.5
t-12 -28t-27 -11t-27 11t-12 28t12 27z" />
    <glyph glyph-name="uni1ECD" unicode="&#x1ecd;" horiz-adv-x="565" 
d="M105 401q65 67 168 67t168.5 -67t65.5 -171q0 -103 -65 -171q-66 -68 -169 -68t-168.5 68t-65.5 171q0 104 66 171zM156 109q45 -48 117 -48t116.5 47.5t44.5 121.5t-44.5 121t-116.5 47t-117 -47.5t-45 -120.5t45 -121zM234 -98q0 17 12 27.5t27 10.5t27 -10.5t12 -27.5
t-12 -28t-27 -11t-27 11t-12 28z" />
    <glyph glyph-name="uni1EE4" unicode="&#x1ee4;" horiz-adv-x="614" 
d="M53 650h75v-417q0 -79 46 -123t123 -44t123 44t46 123v417h76v-424q0 -102 -66 -168t-179 -66t-178.5 66t-65.5 168v424zM258 -91q0 17 12 27.5t27 10.5t27 -10.5t12 -27.5t-12 -28t-27 -11t-27 11t-12 28z" />
    <glyph glyph-name="uni1EE5" unicode="&#x1ee5;" horiz-adv-x="529" 
d="M125 460v-275q0 -63 37.5 -97t92.5 -34t92 34t37 97v275h72v-460h-72v61q-50 -69 -148 -69q-76 0 -129.5 46.5t-53.5 137.5v284h72zM228 -69q12 11 27 11t27 -10.5t12 -27.5t-12 -28t-27 -11t-27 11t-12 28t12 27z" />
    <glyph glyph-name="Ygrave" unicode="&#x1ef2;" horiz-adv-x="588" 
d="M102 650l183 -287l183 287h87l-232 -365v-285h-75v283l-234 367h88zM272 808l45 -98h-62l-50 98h67z" />
    <glyph glyph-name="ygrave" unicode="&#x1ef3;" horiz-adv-x="478" 
d="M10 460h75l142 -360l143 360h75l-256 -644h-71l72 185zM214 625l45 -98h-62l-50 98h67z" />
    <glyph glyph-name="uni1EF4" unicode="&#x1ef4;" horiz-adv-x="588" 
d="M102 650l183 -287l183 287h87l-232 -365v-285h-75v283l-234 367h88zM258 -63q12 11 27 11t27 -10.5t12 -27.5t-12 -28t-27 -11t-27 11t-12 28t12 27z" />
    <glyph glyph-name="uni1EF5" unicode="&#x1ef5;" horiz-adv-x="478" 
d="M10 460h75l142 -360l143 360h75l-256 -644h-71l72 185zM281 -107q12 11 27 11t27 -10.5t12 -27.5t-12 -28t-27 -11t-27 11t-12 28t12 27z" />
    <glyph glyph-name="uni1EF8" unicode="&#x1ef8;" horiz-adv-x="588" 
d="M14 650h88l183 -287l183 287h87l-232 -365v-285h-75v283zM144 708q1 40 23.5 66.5t59.5 26.5q39 0 68 -33q24 -26 46 -26q36 0 38 47h46q-1 -41 -22.5 -67t-61.5 -26t-70 34q-23 25 -43 25q-18 0 -27.5 -14.5t-10.5 -32.5h-46z" />
    <glyph glyph-name="uni1EF9" unicode="&#x1ef9;" horiz-adv-x="478" 
d="M85 460l142 -360l143 360h75l-256 -644h-71l72 185l-180 459h75zM86 525q1 40 23.5 66.5t59.5 26.5q39 0 68 -33q24 -26 46 -26q36 0 38 47h46q-1 -41 -22.5 -67t-61.5 -26t-70 34q-23 25 -43 25q-18 0 -27.5 -14.5t-10.5 -32.5h-46z" />
    <glyph glyph-name="endash" unicode="&#x2013;" horiz-adv-x="493" 
d="M53 330h368v-70h-368v70z" />
    <glyph glyph-name="emdash" unicode="&#x2014;" horiz-adv-x="632" 
d="M53 329h506v-70h-506v70z" />
    <glyph glyph-name="quoteleft" unicode="&#x2018;" horiz-adv-x="172" 
d="M112 519h-79l50 131h56z" />
    <glyph glyph-name="quoteright" unicode="&#x2019;" horiz-adv-x="172" 
d="M60 650h79l-50 -131h-56z" />
    <glyph glyph-name="quotesinglbase" unicode="&#x201a;" horiz-adv-x="172" 
d="M60 60h79l-50 -128h-56z" />
    <glyph glyph-name="quotedblleft" unicode="&#x201c;" horiz-adv-x="330" 
d="M112 519h-79l50 131h56zM271 519h-80l51 131h56z" />
    <glyph glyph-name="quotedblright" unicode="&#x201d;" horiz-adv-x="330" 
d="M60 650h79l-50 -131h-56zM218 650h80l-51 -131h-56z" />
    <glyph glyph-name="quotedblbase" unicode="&#x201e;" horiz-adv-x="330" 
d="M60 60h79l-50 -131h-56zM218 60h80l-51 -131h-56z" />
    <glyph glyph-name="dagger" unicode="&#x2020;" horiz-adv-x="423" 
d="M351 467v-59h-114v-408h-70v408h-114v59h114v183h70v-183h114z" />
    <glyph glyph-name="daggerdbl" unicode="&#x2021;" horiz-adv-x="423" 
d="M351 410h-114v-163h114v-58h-114v-189h-70v189h-114v58h114v163h-114v58h114v182h70v-182h114v-58z" />
    <glyph glyph-name="bullet" unicode="&#x2022;" horiz-adv-x="206" 
d="M103 254q-30 0 -50 20.5t-20 50.5t20 50t50 20q31 0 51 -20t20 -50t-20 -50.5t-51 -20.5z" />
    <glyph glyph-name="ellipsis" unicode="&#x2026;" horiz-adv-x="519" 
d="M76 -3q-19 0 -31 12t-12 31t12 31t31 12t31 -12t12 -31t-12 -31t-31 -12zM262 -3q-19 0 -31 12t-12 31t12 31t31 12t31 -12t12 -31t-12 -31t-31 -12zM443 -3q-19 0 -31 12t-12 31t12 31t31 12t31 -12t12 -31t-12 -31t-31 -12z" />
    <glyph glyph-name="perthousand" unicode="&#x2030;" horiz-adv-x="1195" 
d="M198 356q-62 0 -103.5 42t-41.5 106q0 66 41 107.5t104 41.5t104 -41.5t41 -107.5q0 -64 -41.5 -106t-103.5 -42zM257 0h-62l351 650h62zM198 408q41 0 67 27t26 69q0 43 -26 70t-67 27t-67 -27t-26 -70q0 -42 26 -69t67 -27zM606 -3q-63 0 -104.5 42t-41.5 106
q0 66 41.5 107.5t104.5 41.5q62 0 103 -42t41 -107q0 -64 -41 -106t-103 -42zM978 -3q-63 0 -104.5 42t-41.5 106q0 66 41.5 107.5t104.5 41.5q62 0 103 -42t41 -107q0 -64 -41 -106t-103 -42zM606 49q40 0 66 27t26 69q0 43 -25.5 70t-66.5 27t-67.5 -27t-26.5 -70
q0 -42 26.5 -69t67.5 -27zM978 49q40 0 66 27t26 69q0 43 -25.5 70t-66.5 27t-67.5 -27t-26.5 -70q0 -42 26.5 -69t67.5 -27z" />
    <glyph glyph-name="guilsinglleft" unicode="&#x2039;" horiz-adv-x="346" 
d="M294 135h-89l-172 186l172 186h89l-171 -186z" />
    <glyph glyph-name="guilsinglright" unicode="&#x203a;" horiz-adv-x="346" 
d="M33 135l171 186l-171 186h89l172 -186l-172 -186h-89z" />
    <glyph glyph-name="fraction" unicode="&#x2044;" horiz-adv-x="480" 
d="M59 0h-39l401 650h39z" />
    <glyph glyph-name="uni2070" unicode="&#x2070;" horiz-adv-x="419" 
d="M204 253q-74 0 -117.5 56.5t-43.5 145.5q0 90 43.5 146.5t117.5 56.5q75 0 118.5 -56.5t43.5 -146.5q0 -89 -44 -145.5t-118 -56.5zM204 298q52 0 83.5 43t31.5 114q0 72 -31 114t-84 42t-84 -42t-31 -114q0 -71 31.5 -114t83.5 -43z" />
    <glyph glyph-name="uni2074" unicode="&#x2074;" horiz-adv-x="374" 
d="M331 376v-35h-46v-83h-46v83h-206v32l206 277h46v-274h46zM79 376h160v214z" />
    <glyph glyph-name="uni2075" unicode="&#x2075;" horiz-adv-x="362" 
d="M160 513q70 0 107 -36t37 -91q0 -59 -39 -94t-102 -35q-85 0 -130 57l31 31q35 -44 96 -44q45 1 72 24.5t27 63.5q0 39 -28 62.5t-73 23.5q-48 0 -79 -18l-15 33l26 164h198v-42h-162l-16 -105q25 6 50 6z" />
    <glyph glyph-name="uni2076" unicode="&#x2076;" horiz-adv-x="372" 
d="M179 530q58 0 96.5 -39.5t38.5 -99.5t-38.5 -99.5t-96.5 -39.5t-97 39.5t-39 99.5q0 46 28 87l115 172h50l-82 -122q8 2 25 2zM179 296q40 0 66 26.5t26 68.5t-26 69t-66 27t-66.5 -27t-26.5 -69t26.5 -68.5t66.5 -26.5z" />
    <glyph glyph-name="uni2077" unicode="&#x2077;" horiz-adv-x="306" 
d="M50 258l162 349h-186v42h238v-32l-165 -359h-49z" />
    <glyph glyph-name="uni2078" unicode="&#x2078;" horiz-adv-x="374" 
d="M251 461q66 -29 66 -96q0 -51 -35 -82t-102 -31q-66 0 -101.5 31t-35.5 82q0 67 66 96q-60 28 -60 91q0 42 33.5 73t97.5 31t97 -31t33 -73q0 -64 -59 -91zM180 620q-43 0 -65.5 -21t-22.5 -50q0 -31 22 -51t66 -20q45 0 66.5 19.5t21.5 51.5q0 29 -22 50t-66 21z
M180 290q46 0 69.5 21.5t23.5 56.5q0 33 -24 54.5t-69 21.5q-44 0 -68.5 -21.5t-24.5 -54.5q0 -34 24 -56t69 -22z" />
    <glyph glyph-name="uni2079" unicode="&#x2079;" horiz-adv-x="372" 
d="M314 516q0 -47 -27 -86l-113 -173h-51l80 121q-8 -1 -25 -1q-58 0 -96.5 39.5t-38.5 99.5q0 59 38.5 99t96.5 40t97 -40t39 -99zM86 516q0 -42 26 -69t66 -27q41 0 67 26.5t26 69.5q0 42 -26 68.5t-67 26.5q-40 0 -66 -26.5t-26 -68.5z" />
    <glyph glyph-name="Euro" unicode="&#x20ac;" horiz-adv-x="589" 
d="M468 588q-81 0 -140.5 -39.5t-84.5 -114.5h221v-44h-233q-5 -33 -5 -65q0 -35 6 -67h232v-44h-221q26 -73 85.5 -112.5t139.5 -39.5q39 0 49 1v-70q-10 -1 -61 -1q-110 0 -186 60t-104 162h-113v44h104q-5 35 -5 67q0 30 5 65h-104v44h113q27 103 103 163.5t187 60.5
q51 0 61 -1v-70q-10 1 -49 1z" />
    <glyph glyph-name="trademark" unicode="&#x2122;" horiz-adv-x="1329" 
d="M638 650h80l229 -456l229 456h80v-650h-75v505l-208 -425h-52l-208 425v-505h-75v650zM532 650v-70h-212v-580h-75v580h-212v70h499z" />
    <glyph glyph-name="oneeighth" unicode="&#x215b;" horiz-adv-x="532" 
d="M127 650v-328h-38v293h-75v35h113zM55 0h-39l401 650h39zM462 166q54 -22 54 -78q0 -42 -29 -67.5t-83 -25.5q-55 0 -84 25.5t-29 67.5q0 55 55 78q-50 24 -50 75q0 34 28 59.5t80 25.5t79.5 -25.5t27.5 -59.5q0 -52 -49 -75zM404 297q-36 0 -54 -17t-18 -41
q0 -26 18 -42t54 -16t54 16t18 42q0 24 -18 41t-54 17zM404 26q37 0 56.5 17.5t19.5 46.5q0 27 -19.5 45t-56.5 18t-56.5 -18t-19.5 -45q0 -28 19.5 -46t56.5 -18z" />
    <glyph glyph-name="threeeighths" unicode="&#x215c;" horiz-adv-x="606" 
d="M135 532q44 -3 75.5 -28.5t31.5 -73.5q0 -51 -34.5 -79.5t-83.5 -28.5q-34 0 -63.5 13t-44.5 35l25 24q28 -35 83 -35q35 0 57.5 19.5t22.5 51.5q0 34 -22.5 53t-57.5 19q-31 0 -58 -10l1 29l114 94h-142v35h196v-33zM124 0h-39l401 650h39zM536 166q54 -22 54 -78
q0 -42 -29 -67.5t-83 -25.5q-55 0 -84 25.5t-29 67.5q0 55 55 78q-50 24 -50 75q0 34 28 59.5t80 25.5t79.5 -25.5t27.5 -59.5q0 -52 -49 -75zM478 297q-36 0 -54 -17t-18 -41q0 -26 18 -42t54 -16t54 16t18 42q0 24 -18 41t-54 17zM478 26q37 0 56.5 17.5t19.5 46.5
q0 27 -19.5 45t-56.5 18t-56.5 -18t-19.5 -45q0 -28 19.5 -46t56.5 -18z" />
    <glyph glyph-name="fiveeighths" unicode="&#x215d;" horiz-adv-x="616" 
d="M123 537q59 0 90.5 -30t31.5 -77q0 -50 -33 -79t-86 -29q-71 0 -109 48l26 25q30 -36 81 -36q38 0 60.5 20t22.5 53t-24 53t-61 20q-40 0 -67 -15l-12 28l22 137h166v-35h-136l-14 -88q25 5 42 5zM131 0h-39l401 650h39zM545 166q54 -22 54 -78q0 -42 -29 -67.5
t-83 -25.5q-55 0 -84 25.5t-29 67.5q0 55 55 78q-50 24 -50 75q0 34 28 59.5t80 25.5t79.5 -25.5t27.5 -59.5q0 -52 -49 -75zM487 297q-36 0 -54 -17t-18 -41q0 -26 18 -42t54 -16t54 16t18 42q0 24 -18 41t-54 17zM487 26q37 0 56.5 17.5t19.5 46.5q0 27 -19.5 45t-56.5 18
t-56.5 -18t-19.5 -45q0 -28 19.5 -46t56.5 -18z" />
    <glyph glyph-name="seveneighths" unicode="&#x215e;" horiz-adv-x="548" 
d="M55 0h-39l401 650h39zM63 323l135 292h-156v35h200v-27l-139 -300h-40zM477 166q54 -22 54 -78q0 -42 -29 -67.5t-83 -25.5q-55 0 -84 25.5t-29 67.5q0 55 55 78q-50 24 -50 75q0 34 28 59.5t80 25.5t79.5 -25.5t27.5 -59.5q0 -52 -49 -75zM419 297q-36 0 -54 -17
t-18 -41q0 -26 18 -42t54 -16t54 16t18 42q0 24 -18 41t-54 17zM419 26q37 0 56.5 17.5t19.5 46.5q0 27 -19.5 45t-56.5 18t-56.5 -18t-19.5 -45q0 -28 19.5 -46t56.5 -18z" />
    <glyph glyph-name="arrowleft" unicode="&#x2190;" horiz-adv-x="757" 
d="M684 356v-70h-504l173 -173l-46 -45l-254 254l254 254l46 -45l-175 -175h506z" />
    <glyph glyph-name="arrowup" unicode="&#x2191;" horiz-adv-x="634" 
d="M561 385l-45 -46l-175 175v-507h-70v505l-173 -173l-45 45l254 255z" />
    <glyph glyph-name="arrowright" unicode="&#x2192;" horiz-adv-x="757" 
d="M430 576l254 -254l-254 -254l-46 45l173 173h-504v70h506l-175 175z" />
    <glyph glyph-name="arrowdown" unicode="&#x2193;" horiz-adv-x="634" 
d="M516 306l45 -45l-254 -254l-254 254l45 46l173 -173v505h70v-507z" />
    <glyph glyph-name="arrowboth" unicode="&#x2194;" horiz-adv-x="931" 
d="M623 576l255 -254l-255 -254l-45 45l173 173h-578l173 -173l-45 -45l-255 254l255 254l45 -45l-175 -175h582l-175 175z" />
    <glyph glyph-name="arrowupdn" unicode="&#x2195;" horiz-adv-x="617" 
d="M544 210l-246 -247l-245 245l45 46l164 -163v467l-164 -165l-45 46l245 245l246 -245l-45 -46l-167 166v-470l167 167z" />
    <glyph glyph-name="uni2196" unicode="&#x2196;" horiz-adv-x="601" 
d="M529 223l-50 -50l-362 362v-245h-64v360h360v-64h-247z" />
    <glyph glyph-name="uni2197" unicode="&#x2197;" horiz-adv-x="601" 
d="M169 650h360v-360h-65v245l-362 -362l-49 50l362 363h-246v64z" />
    <glyph glyph-name="uni2198" unicode="&#x2198;" horiz-adv-x="601" 
d="M464 360h65v-360h-360v64h247l-363 363l49 50l362 -362v245z" />
    <glyph glyph-name="uni2199" unicode="&#x2199;" horiz-adv-x="601" 
d="M529 427l-364 -363h248v-64h-360v360h64v-245l362 362z" />
    <glyph glyph-name="partialdiff" unicode="&#x2202;" horiz-adv-x="568" 
d="M488 280q8 -32 8 -65q0 -100 -63.5 -163.5t-158.5 -63.5q-96 0 -158.5 63.5t-62.5 163.5t62.5 162.5t158.5 62.5q35 0 68 -9q-88 142 -186 219h85q79 -62 155 -174.5t92 -195.5zM274 58q65 0 108.5 43.5t43.5 113.5q0 69 -43 112t-109 43t-108.5 -43t-42.5 -112
q0 -70 43 -113.5t108 -43.5z" />
    <glyph glyph-name="emptyset" unicode="&#x2205;" horiz-adv-x="585" 
d="M424 514q89 -67 89 -193q0 -104 -63.5 -170.5t-165.5 -66.5q-60 0 -110 25l-27 -44h-44l39 64q-89 67 -89 192q0 104 64 170.5t167 66.5q58 0 108 -24l27 43h44zM112 321q0 -90 62 -141l187 302q-36 17 -77 17q-76 0 -124 -50.5t-48 -127.5zM284 143q76 0 122.5 50.5
t46.5 127.5q0 91 -61 141l-186 -302q36 -17 78 -17z" />
    <glyph glyph-name="product" unicode="&#x220f;" horiz-adv-x="628" 
d="M556 649v-70h-110v-579h-70v579h-143v-579h-70v579h-110v70h503z" />
    <glyph glyph-name="summation" unicode="&#x2211;" horiz-adv-x="550" 
d="M478 658v-70h-325l225 -266l-222 -260h322v-70h-425v62l230 268l-230 273v63h425z" />
    <glyph glyph-name="minus" unicode="&#x2212;" horiz-adv-x="507" 
d="M53 345h381v-59h-381v59z" />
    <glyph glyph-name="radical" unicode="&#x221a;" horiz-adv-x="731" 
d="M659 692v-59h-158l-248 -681h-73l-127 345h70l93 -251l236 646h207z" />
    <glyph glyph-name="infinity" unicode="&#x221e;" horiz-adv-x="843" 
d="M204 174q-63 0 -107 44t-44 105t44 104.5t107 43.5q56 0 95 -21t116 -90q74 69 116 90t88 21q64 0 108 -43.5t44 -104.5t-43.5 -105t-108.5 -44q-54 0 -90.5 22.5t-113.5 93.5q-72 -68 -113 -92t-98 -24zM204 227q71 0 167 97q-66 61 -98 77.5t-69 16.5q-40 0 -70 -26.5
t-30 -68.5q0 -43 30 -69.5t70 -26.5zM619 227q41 0 70.5 26t29.5 70q0 42 -30 68.5t-70 26.5q-37 0 -66.5 -15.5t-93.5 -77.5q59 -57 90 -77.5t70 -20.5z" />
    <glyph glyph-name="integral" unicode="&#x222b;" horiz-adv-x="528" 
d="M381 692h75v-57h-56q-75 0 -85 -84l-52 -469q-7 -63 -44 -96.5t-92 -33.5h-74v58h55q75 0 85 84l51 463q7 67 45 101t92 34z" />
    <glyph glyph-name="approxequal" unicode="&#x2248;" horiz-adv-x="596" 
d="M464 479h59q0 -65 -36.5 -106t-101.5 -41q-26 0 -50.5 10.5t-34.5 18.5t-29 26q-1 1 -9 8.5t-10 9t-9 7.5t-10 7.5t-9.5 5.5t-11 5t-11 2.5t-12.5 1.5q-36 0 -57 -25t-21 -62h-58q0 65 35.5 106t98.5 41q26 0 51 -11.5t33 -18.5t29 -26q17 -16 27 -24t26 -15.5t32 -7.5
q35 0 57 22t22 66zM464 297h59q0 -65 -36.5 -106.5t-101.5 -41.5q-26 0 -50.5 11t-34 18.5t-29.5 26.5q-1 1 -7.5 7t-7.5 7t-7 6.5t-8 6.5t-7.5 5t-8 5t-8 3.5t-9.5 3t-9 1.5t-10 1q-36 0 -57 -25t-21 -62h-58q0 66 35.5 107t98.5 41q10 0 20.5 -2t18 -4t16.5 -6.5
t13.5 -7.5t13.5 -10t11 -9t10.5 -9.5t9.5 -8.5q17 -16 27 -24t26 -15.5t32 -7.5q35 0 57 22.5t22 66.5z" />
    <glyph glyph-name="notequal" unicode="&#x2260;" horiz-adv-x="507" 
d="M434 390h-134l-55 -138h189v-59h-213l-40 -99h-58l40 99h-110v59h134l55 138h-189v59h213l40 100h58l-40 -100h110v-59z" />
    <glyph glyph-name="lessequal" unicode="&#x2264;" horiz-adv-x="458" 
d="M386 495v-56l-249 -72l249 -73v-55l-330 98v60zM53 148v51h333v-51h-333z" />
    <glyph glyph-name="greaterequal" unicode="&#x2265;" horiz-adv-x="458" 
d="M383 337l-330 -98v55l249 73l-249 72v56l330 -98v-60zM53 199h333v-51h-333v51z" />
    <glyph glyph-name="lozenge" unicode="&#x25ca;" horiz-adv-x="613" 
d="M333 650l207 -328l-203 -322h-81l-203 322l207 328h73zM297 48l172 274l-172 273l-173 -273z" />
    <glyph glyph-name="A.ss01" horiz-adv-x="648" 
d="M615 0h-80l-216 530l-216 -530h-80l267 650h58z" />
    <glyph glyph-name="I.ss01" horiz-adv-x="393" 
d="M340 580h-116v-510h116v-70h-307v70h116v510h-116v70h307v-70z" />
    <glyph glyph-name="J.ss01" horiz-adv-x="586" 
d="M514 650v-421q0 -108 -68 -172.5t-179 -64.5q-91 0 -152 43.5t-82 112.5l72 28q16 -53 58.5 -81.5t103.5 -28.5q78 0 124.5 45.5t46.5 127.5v341h-282v70h358z" />
    <glyph glyph-name="R.ss01" horiz-adv-x="601" 
d="M384 193q37 -64 71.5 -94t93.5 -30v-70q-89 0 -140 38.5t-108 136.5l-46 80h-127v-254h-75v650h301q77 0 131 -55t54 -143t-54 -143t-131 -55h-6zM128 576v-249h214q53 0 87 36t34 89q0 52 -34 88t-87 36h-214z" />
    <glyph glyph-name="i.loclTRK" horiz-adv-x="210" 
d="M59 0v460h73l-1 -460h-72zM56 559q0 16 12 26.5t27 10.5t27 -10.5t12 -26.5q0 -17 -12 -28q-12 -12 -27 -12t-27 11.5t-12 28.5z" />
    <glyph glyph-name="a.ss01" horiz-adv-x="526" 
d="M47 176q8 21 22.5 35t34.5 25t44 16.5t52 9.5t58 5t50.5 1.5t31.5 0.5q20 0 41 -1v25q0 55 -36.5 85t-95.5 30q-106 0 -136 -73l-59 24q18 48 66.5 78.5t128.5 30.5q98 0 151.5 -45t53.5 -127v-296h-73v61q-50 -69 -158 -69q-93 0 -138.5 37t-45.5 100q0 26 8 47zM232 47
q79 0 114 38.5t35 96.5v42q-37 0 -58.5 -0.5t-52 -1.5t-47.5 -3.5t-38.5 -6.5t-33 -11t-22.5 -16.5t-15.5 -22.5t-4.5 -29q0 -86 123 -86z" />
    <glyph glyph-name="n.ss01" horiz-adv-x="529" 
d="M53 460h217q81 0 134 -45t53 -130v-285h-73v270q0 130 -137 130h-122v-400h-72v460z" />
    <glyph glyph-name="r.ss01" horiz-adv-x="310" 
d="M53 0v265q0 99 57 150t158 52v-69q-67 -2 -105 -40t-38 -106v-252h-72z" />
    <glyph glyph-name="u.ss01" horiz-adv-x="529" 
d="M53 460h72v-270q0 -130 137 -130h122v400h73v-460h-217q-81 0 -134 45t-53 130v285z" />
    </font>
</defs>
</svg>
