<?xml version="1.0" standalone="no"?>
<!DOCTYPE svg PUBLIC "-//W3C//DTD SVG 1.1//EN" "http://www.w3.org/Graphics/SVG/1.1/DTD/svg11.dtd" >
<svg xmlns="http://www.w3.org/2000/svg" xmlns:xlink="http://www.w3.org/1999/xlink" version="1.1">
<metadata>
Created by FontForge 20170731 at Tue Jul 14 08:14:59 2020
 By Aleksey,,,
Copyright (c) 2020 by Bagas Ardiatma. All rights reserved.
</metadata>
<defs>
<font id="Causten-SemiBold" horiz-adv-x="572" >
  <font-face 
    font-family="Causten-SemiBold"
    font-weight="400"
    font-stretch="normal"
    units-per-em="1000"
    panose-1="0 0 7 0 0 0 0 0 0 0"
    ascent="772"
    descent="-228"
    x-height="460"
    cap-height="650"
    bbox="-335 -200 1275 868"
    underline-thickness="50"
    underline-position="-150"
    unicode-range="U+0020-25CA"
  />
<missing-glyph horiz-adv-x="475" 
d="M88 -200v950h302v-950h-302zM316 -5v107h-157v-107h157zM159 -27v-31h66l-66 -45v-31h157v31h-97l67 45h30v31h-157zM316 159v107h-95v-53h33v22h31v-45h-95v76h-31v-107h157zM159 564v-99h157v32h-62v67h-95zM316 589v31h-62v35h62v31h-156v-31h61v-35h-62v-31h157z
M159 373v-31h95v66h62v31h-157v-31h62v-35h-62zM159 320v-33h157v95h-31v-62h-126zM190 71h95v-45h-95v45zM190 532h31v-35h-31v35z" />
    <glyph glyph-name="f_f" unicode="ff" horiz-adv-x="654" 
d="M563 566q-26 0 -45 -14.5t-19 -49.5v-42h110v-82h-110v-378h-107v378h-205v-378h-108v378h-61v82h61v49q0 68 35.5 104.5t103.5 36.5h82v-84h-49q-26 0 -45 -14.5t-19 -49.5v-42h205v49q0 68 34.5 104.5t98.5 36.5h95v-84h-57z" />
    <glyph glyph-name="t_t.liga" unicode="tt" horiz-adv-x="635" 
d="M598 378h-103v-236q0 -35 17.5 -46.5t45.5 -11.5h35v-84h-79q-126 0 -126 125v253h-201v-236q0 -35 17 -46.5t45 -11.5h35v-84h-79q-126 0 -126 125v253h-61v82h61v141h108v-141h201v141h107v-141h103v-82z" />
    <glyph glyph-name=".notdef" horiz-adv-x="475" 
d="M88 -200v950h302v-950h-302zM316 -5v107h-157v-107h157zM159 -27v-31h66l-66 -45v-31h157v31h-97l67 45h30v31h-157zM316 159v107h-95v-53h33v22h31v-45h-95v76h-31v-107h157zM159 564v-99h157v32h-62v67h-95zM316 589v31h-62v35h62v31h-156v-31h61v-35h-62v-31h157z
M159 373v-31h95v66h62v31h-157v-31h62v-35h-62zM159 320v-33h157v95h-31v-62h-126zM190 71h95v-45h-95v45zM190 532h31v-35h-31v35z" />
    <glyph glyph-name=".null" horiz-adv-x="0" 
 />
    <glyph glyph-name="uni000D" horiz-adv-x="333" 
 />
    <glyph glyph-name="space" unicode=" " horiz-adv-x="200" 
 />
    <glyph glyph-name="exclam" unicode="!" horiz-adv-x="213" 
d="M31 650h112l-8 -475h-97zM28 54q0 26 17 43q17 16 42 16t42 -17t17 -42t-17 -42t-42 -17t-42 16.5t-17 42.5z" />
    <glyph glyph-name="quotedbl" unicode="&#x22;" horiz-adv-x="348" 
d="M320 650l-16 -162h-79l-12 162h107zM135 650l-16 -162h-79l-12 162h107z" />
    <glyph glyph-name="numbersign" unicode="#" horiz-adv-x="717" 
d="M28 239h110l36 164h-108v96h129l32 148h103l-32 -148h184l32 148h103l-32 -148h85v-96h-106l-36 -164h104v-96h-125l-32 -146h-103l32 146h-184l-32 -146h-103l32 146h-89v96zM241 239h184l36 164h-184z" />
    <glyph glyph-name="dollar" unicode="$" horiz-adv-x="621" 
d="M141 214q13 -35 63 -65.5t107 -30.5q111 0 111 71q0 15 -7.5 27.5t-16.5 20.5t-27 16t-28 11t-32 9.5t-27 7.5q-1 0 -18 5t-24 7.5t-25 9t-28 11.5t-26.5 14t-26 18t-22 21.5t-19 26t-11 30.5t-4.5 36q0 69 47.5 111.5t125.5 54.5v66h105v-67q68 -10 122 -43.5t73 -76.5
l-89 -56q-13 30 -60 55.5t-97 25.5q-48 0 -74 -17.5t-26 -45.5q0 -14 7 -26.5t15.5 -20t26 -15.5t28 -11.5t32 -10t27.5 -8.5q2 -1 22.5 -7.5t31.5 -10t33 -13t35 -18t31 -23t28 -29.5t17 -36t7 -44q0 -77 -50.5 -122.5t-139.5 -55.5v-65h-105v67q-77 10 -131.5 46t-73.5 92
z" />
    <glyph glyph-name="percent" unicode="%" horiz-adv-x="849" 
d="M520 263q43 44 109 44t109.5 -44t43.5 -113q0 -67 -43 -111q-44 -45 -110 -45t-109.5 44.5t-43.5 111.5q0 69 44 113zM91 611q43 44 110 44q66 0 109 -44t43 -113q0 -67 -43.5 -111.5t-108.5 -44.5q-67 0 -110 44t-43 112q0 69 43 113zM548 650h85l-351 -650h-85z
M548 150q0 -36 23 -60q22 -24 58 -24t58.5 23.5t22.5 60.5t-22.5 61t-58.5 24t-58.5 -24t-22.5 -61zM120 498q0 -37 23 -60q22 -24 58 -24t58 23.5t22 60.5t-22 61t-58 24t-58.5 -24t-22.5 -61z" />
    <glyph glyph-name="ampersand" unicode="&#x26;" horiz-adv-x="646" 
d="M48 170q0 55 30.5 100t103.5 94q-4 6 -6 8q-38 47 -55.5 79.5t-17.5 69.5q0 57 44.5 97.5t118.5 40.5q73 0 117.5 -42t44.5 -98q0 -33 -11.5 -62t-33 -51.5t-39.5 -36t-43 -29.5l132 -164q28 51 28 114v11h84v-12q0 -102 -58 -181l91 -112h-104q-2 2 -43 53
q-74 -58 -162 -58q-104 0 -162.5 50t-58.5 129zM150 170q0 -40 31 -68t89 -28t109 40l-144 183q-37 -27 -57.5 -53.5t-24 -41t-3.5 -32.5zM198 480q8 -18 15 -28t28 -38q1 -1 3.5 -4t4.5 -5q43 26 68 51.5t25 57.5t-22 52q-22 19 -54 19t-54 -20t-22 -51q0 -16 8 -34z" />
    <glyph glyph-name="quotesingle" unicode="'" horiz-adv-x="163" 
d="M28 650h107l-19 -162h-79z" />
    <glyph glyph-name="parenleft" unicode="(" horiz-adv-x="274" 
d="M27 322q0 234 89 370h110q-61 -83 -77.5 -190t-16.5 -179t17 -180.5t78 -190.5h-111q-89 135 -89 370z" />
    <glyph glyph-name="parenright" unicode=")" horiz-adv-x="284" 
d="M122 178q11 72 11 144t-16.5 179.5t-77.5 190.5h110q58 -89 73.5 -194.5t16.5 -176.5q-1 -70 -16.5 -175.5t-73.5 -193.5h-111q61 82 84 226z" />
    <glyph glyph-name="asterisk" unicode="*" horiz-adv-x="385" 
d="M139 491l-102 66l32 49l93 -61v105h61v-108l96 59l31 -49l-102 -63l101 -66l-32 -49l-94 61v-106h-61v108l-96 -59l-31 49z" />
    <glyph glyph-name="plus" unicode="+" horiz-adv-x="512" 
d="M202 366v154h89v-154h154v-90h-154v-153h-89v153h-154v90h154z" />
    <glyph glyph-name="comma" unicode="," horiz-adv-x="198" 
d="M63 74h108l-65 -170h-78z" />
    <glyph glyph-name="hyphen" unicode="-" horiz-adv-x="406" 
d="M48 333h290v-102h-290v102z" />
    <glyph glyph-name="period" unicode="." horiz-adv-x="173" 
d="M44 96q16 16 42 16t42.5 -16.5t16.5 -41.5q0 -26 -16.5 -42.5t-42.5 -16.5q-25 0 -41.5 16.5t-16.5 42.5t16 42z" />
    <glyph glyph-name="slash" unicode="/" horiz-adv-x="358" 
d="M28 -47l212 739h105l-212 -739h-105z" />
    <glyph glyph-name="zero" unicode="0" horiz-adv-x="634" 
d="M38 325q0 147 74.5 240t198.5 93t200 -93.5t76 -239.5t-76 -239q-76 -94 -200 -94t-198.5 93t-74.5 240zM149 325q0 -105 46 -165q45 -60 116 -60t116 60t45 165q0 104 -45 163t-116 59t-116.5 -59t-45.5 -163z" />
    <glyph glyph-name="one" unicode="1" horiz-adv-x="336" 
d="M269 650v-650h-112v548h-143v102h255z" />
    <glyph glyph-name="two" unicode="2" horiz-adv-x="521" 
d="M105 614q61 45 150 45q105 0 166.5 -52t61.5 -140q0 -35 -15 -73t-32.5 -64.5t-50.5 -61.5t-48.5 -49t-46.5 -41l-86 -76h279v-102h-450l-1 92l128 112q47 40 71 62t62.5 61.5t56.5 72.5t18 61q0 42 -29.5 67t-83.5 25q-46 0 -81.5 -25t-45.5 -58l-100 46q16 53 77 98z
" />
    <glyph glyph-name="three" unicode="3" horiz-adv-x="554" 
d="M98 165q22 -27 63.5 -46t89.5 -19q61 0 100 31t39 84q0 54 -39 85.5t-100 31.5q-56 0 -114 -19l1 81l191 154h-256v102h412v-95l-163 -140q77 -15 128 -63.5t51 -136.5q0 -109 -73 -166t-177 -57q-70 0 -131.5 27.5t-91.5 71.5z" />
    <glyph glyph-name="four" unicode="4" horiz-adv-x="585" 
d="M28 196l331 454h111v-444h77v-82h-77v-124h-111v124h-331v72zM138 206h221v301z" />
    <glyph glyph-name="five" unicode="5" horiz-adv-x="549" 
d="M28 86l73 78q56 -64 144 -64q61 0 100.5 30t39.5 84q0 53 -41.5 83.5t-102.5 30.5q-74 0 -123 -26l-35 68l48 280h339v-102h-251l-23 -132q26 3 47 3q126 0 190 -59t64 -152q0 -101 -68 -158.5t-177 -57.5q-141 0 -224 94z" />
    <glyph glyph-name="six" unicode="6" horiz-adv-x="552" 
d="M79 365l187 285h121l-123 -189h5q99 0 165 -67t66 -167t-66 -167.5t-165 -67.5t-165 68t-66 167q0 78 41 138zM143 227q0 -57 36 -93q35 -37 90 -37t90.5 36.5t35.5 93.5t-35.5 94t-90.5 37t-90.5 -37t-35.5 -94z" />
    <glyph glyph-name="seven" unicode="7" horiz-adv-x="474" 
d="M55 0l253 548h-284v102h413v-76l-265 -574h-117z" />
    <glyph glyph-name="eight" unicode="8" horiz-adv-x="558" 
d="M38 185q0 47 25 87.5t73 65.5q-43 25 -65 63.5t-22 81.5q0 71 57 124t166 53t165.5 -53t56.5 -124q0 -95 -86 -145q47 -25 72 -65.5t25 -87.5q0 -87 -60 -141t-173 -54t-173.5 54t-60.5 141zM179 113q33 -31 93 -31q61 0 93.5 30t32.5 78q0 46 -33 77t-93 31t-93.5 -31
t-33.5 -77t34 -77zM151 476q0 -42 30.5 -70.5t90.5 -28.5q59 0 89.5 28.5t30.5 70.5q0 41 -30 71q-31 29 -90 29t-90 -29.5t-31 -70.5z" />
    <glyph glyph-name="nine" unicode="9" horiz-adv-x="552" 
d="M38 423q0 100 65.5 167.5t164.5 67.5t165.5 -68t66.5 -167q0 -75 -42 -138l-185 -285h-120l120 189h-5q-99 0 -164.5 67t-65.5 167zM143 423q0 -57 35.5 -93.5t89.5 -36.5q64 0 101 48l2 3q24 34 24 79q0 57 -35.5 93.5t-91.5 36.5q-54 0 -89.5 -36.5t-35.5 -93.5z" />
    <glyph glyph-name="colon" unicode=":" horiz-adv-x="185" 
d="M44 394q16 16 42 16t42.5 -16.5t16.5 -41.5q0 -26 -16.5 -42.5t-42.5 -16.5q-25 0 -41.5 16.5t-16.5 42.5t16 42zM44 96q16 16 42 16t42.5 -16.5t16.5 -41.5q0 -26 -16.5 -42.5t-42.5 -16.5q-25 0 -41.5 16.5t-16.5 42.5t16 42z" />
    <glyph glyph-name="semicolon" unicode=";" horiz-adv-x="213" 
d="M66 74h107l-67 -170h-78zM52 351q0 24 17.5 41.5t41.5 17.5t41.5 -17.5t17.5 -41.5t-17 -41q-18 -18 -42 -18t-41.5 17.5t-17.5 41.5z" />
    <glyph glyph-name="less" unicode="&#x3c;" horiz-adv-x="445" 
d="M378 487v-84l-220 -81l220 -82v-84l-330 122v87z" />
    <glyph glyph-name="equal" unicode="=" horiz-adv-x="513" 
d="M445 261v-84h-397v84h397zM48 466h397v-83h-397v83z" />
    <glyph glyph-name="greater" unicode="&#x3e;" horiz-adv-x="445" 
d="M268 322l-220 81v84l330 -122v-87l-330 -122v84z" />
    <glyph glyph-name="question" unicode="?" horiz-adv-x="501" 
d="M14 523q22 58 79.5 98t136.5 40q94 0 153.5 -46.5t59.5 -131.5q0 -38 -14.5 -71.5t-28 -49.5t-42.5 -45q-2 -2 -12.5 -13.5t-12.5 -14t-11 -12.5t-11 -13.5t-8 -12.5t-8 -14t-5 -13t-4 -15t-1 -15v-19h-112v19q0 82 70 147l30 30q4 4 13 13.5t12 14t9.5 13t9 15t6 14.5
t4.5 16.5t1 17.5q0 37 -26.5 60.5t-71.5 23.5q-39 0 -74 -24t-46 -57zM188 93q16 17 42 17t43 -17t17 -42t-17 -42t-43 -17t-42.5 17t-16.5 42t17 42z" />
    <glyph glyph-name="at" unicode="@" horiz-adv-x="796" 
d="M48 323q0 151 98 251t243 100t242.5 -95.5t97.5 -239.5q0 -86 -32 -144.5t-104 -58.5q-41 0 -73 20t-45 59q-35 -57 -106 -57q-56 0 -100 43.5t-44 118.5t43.5 118t100.5 43q63 0 98 -46v41h71v-202q0 -79 55 -79q65 0 65 144q0 127 -78.5 195.5t-190.5 68.5
q-110 0 -190.5 -77t-80.5 -203q0 -125 80.5 -202.5t190.5 -77.5q74 0 127 28l36 -65q-66 -33 -163 -33q-147 0 -244 100.5t-97 249.5zM320 256q23 -27 62 -27t62 26.5t23 64.5t-23 64t-62 26t-62.5 -26t-23.5 -64t24 -64z" />
    <glyph glyph-name="A" unicode="A" horiz-adv-x="659" 
d="M18 0l264 650h85l265 -650h-118l-50 125h-278l-50 -125h-118zM424 227l-99 248l-99 -248h198z" />
    <glyph glyph-name="B" unicode="B" horiz-adv-x="604" 
d="M48 650h301q79 0 133 -48.5t54 -131.5q0 -90 -66 -133q90 -46 90 -151q0 -83 -57 -134.5t-135 -51.5h-320v650zM159 102h192q43 0 68.5 26.5t25.5 66.5q0 39 -26 65.5t-68 26.5h-192v-185zM331 380q41 0 65.5 23t24.5 61q0 39 -24.5 61.5t-65.5 22.5h-172v-168h172z" />
    <glyph glyph-name="C" unicode="C" horiz-adv-x="672" 
d="M38 325q0 145 91.5 239t235.5 94q172 0 263 -131l-90 -66q-27 38 -72.5 62t-100.5 24q-96 0 -156 -62.5t-60 -159.5t60 -159.5t156 -62.5q54 0 99.5 25.5t73.5 63.5l90 -69q-91 -131 -263 -131q-144 0 -235.5 94t-91.5 239z" />
    <glyph glyph-name="D" unicode="D" horiz-adv-x="654" 
d="M281 650q143 0 231.5 -90t88.5 -235t-88.5 -235t-231.5 -90h-233v650h233zM281 108q34 0 68.5 11.5t67.5 35t53 67.5t20 103q0 58 -20.5 102.5t-53 68t-67 35t-68.5 11.5h-122v-434h122z" />
    <glyph glyph-name="E" unicode="E" horiz-adv-x="544" 
d="M48 650h433v-102h-322v-172h301v-102h-301v-172h322v-102h-433v650z" />
    <glyph glyph-name="F" unicode="F" horiz-adv-x="545" 
d="M484 650v-105h-325v-183h306v-105h-306v-257h-111v650h436z" />
    <glyph glyph-name="G" unicode="G" horiz-adv-x="734" 
d="M130 564q91 94 235 94q85 0 152.5 -34.5t110.5 -95.5l-91 -66q-61 85 -172 85q-96 0 -156 -62.5t-60 -159.5t60 -159.5t156 -62.5q71 0 122.5 41t62.5 113h-192v102h319v-49q-5 -141 -89 -229.5t-223 -88.5q-144 0 -235.5 94t-91.5 239t92 239z" />
    <glyph glyph-name="H" unicode="H" horiz-adv-x="640" 
d="M159 650v-271h302v271h111v-650h-111v271h-302v-271h-111v650h111z" />
    <glyph glyph-name="I" unicode="I" horiz-adv-x="226" 
d="M159 0h-111v650h111v-650z" />
    <glyph glyph-name="J" unicode="J" horiz-adv-x="515" 
d="M28 153l108 37q14 -90 100 -90q48 0 74 28.5t26 74.5v447h112v-462q0 -90 -58 -143t-154 -53q-89 0 -142.5 44t-65.5 117z" />
    <glyph glyph-name="K" unicode="K" horiz-adv-x="557" 
d="M48 0v650h111v-279l229 279h128l-263 -325l276 -325h-131l-239 280v-280h-111z" />
    <glyph glyph-name="L" unicode="L" horiz-adv-x="527" 
d="M159 102h320v-102h-431v650h111v-548z" />
    <glyph glyph-name="M" unicode="M" horiz-adv-x="754" 
d="M162 650l205 -409l206 409h114v-650h-112v427l-169 -351h-77l-170 352v-428h-111v650h114z" />
    <glyph glyph-name="N" unicode="N" horiz-adv-x="634" 
d="M48 0v650h108l299 -457v457h111v-650h-108l-299 457v-457h-111z" />
    <glyph glyph-name="O" unicode="O" horiz-adv-x="742" 
d="M38 325q0 145 91.5 239t235.5 94t234.5 -93.5t90.5 -239.5t-90 -239q-91 -94 -235 -94t-235.5 94t-91.5 239zM149 325q0 -97 60 -159q60 -63 156 -63t154.5 62.5t58.5 159.5t-58.5 159.5t-154.5 62.5t-156 -62.5t-60 -159.5z" />
    <glyph glyph-name="P" unicode="P" horiz-adv-x="589" 
d="M347 650q78 0 136 -56.5t58 -152.5q0 -95 -58 -151.5t-136 -56.5h-188v-233h-111v650h299zM159 542v-201h169q43 0 72.5 28t29.5 72t-29 72.5t-71 28.5h-171z" />
    <glyph glyph-name="Q" unicode="Q" horiz-adv-x="742" 
d="M131 564q92 94 234 94q145 0 235 -93.5t90 -239.5q0 -91 -37 -164t-104 -117l94 -126h-134l-62 83q-39 -9 -82 -9q-144 0 -235.5 94t-91.5 239t93 239zM209 166q60 -63 156 -63h6l-72 96h134l48 -65q46 29 71.5 78.5t25.5 112.5q0 97 -58.5 159.5t-154.5 62.5t-156 -62.5
t-60 -159.5t60 -159z" />
    <glyph glyph-name="R" unicode="R" horiz-adv-x="610" 
d="M355 650q78 0 136 -56.5t58 -152.5q0 -78 -40.5 -131t-102.5 -70l156 -240h-129l-151 233h-123v-233h-111v650h307zM159 341h179q43 0 71.5 28t28.5 72t-28.5 72.5t-71.5 28.5h-179v-201z" />
    <glyph glyph-name="S" unicode="S" horiz-adv-x="606" 
d="M28 144l90 63q17 -38 73 -72.5t124 -34.5q120 0 120 85q0 18 -11 33t-32.5 25.5t-38.5 17t-45.5 14.5t-35.5 10q-3 1 -29 8t-39.5 12t-40 16t-42.5 24t-33.5 31t-26 42.5t-8.5 53.5q0 95 70.5 142.5t179.5 47.5q89 0 159 -41t90 -96l-89 -56q-15 31 -64 56t-109 25
q-54 0 -82 -19t-28 -54q0 -15 8.5 -27.5t19.5 -21t30.5 -16.5t33 -12t36 -10.5t30.5 -8.5q2 -1 24 -7.5t33 -10.5t35 -14t38.5 -19t33.5 -24t30 -31t19 -38t8 -47q0 -98 -68.5 -150t-187.5 -52q-104 0 -177 45t-98 111z" />
    <glyph glyph-name="T" unicode="T" horiz-adv-x="588" 
d="M28 650h512v-102h-200v-548h-112v548h-200v102z" />
    <glyph glyph-name="U" unicode="U" horiz-adv-x="614" 
d="M159 650v-410q0 -69 38 -104.5t100 -35.5t100 35.5t38 104.5v410h112v-422q0 -101 -67 -168.5t-183 -67.5t-182.5 67.5t-66.5 168.5v422h111z" />
    <glyph glyph-name="V" unicode="V" horiz-adv-x="651" 
d="M136 650l184 -468l185 468h118l-258 -650h-89l-258 650h118z" />
    <glyph glyph-name="W" unicode="W" horiz-adv-x="949" 
d="M136 650l148 -447l147 447h82l145 -433l145 433h118l-217 -650h-95l-140 420l-139 -420h-95l-217 650h118z" />
    <glyph glyph-name="X" unicode="X" horiz-adv-x="625" 
d="M18 650h129l156 -230l155 230h129l-220 -325l220 -325h-129l-155 230l-156 -230h-129l220 325z" />
    <glyph glyph-name="Y" unicode="Y" horiz-adv-x="612" 
d="M139 650l159 -255l159 255h128l-231 -370v-280h-111v277l-232 373h128z" />
    <glyph glyph-name="Z" unicode="Z" horiz-adv-x="541" 
d="M494 556l-321 -453l314 -1v-102h-449v94l317 453h-311v103h450v-94z" />
    <glyph glyph-name="bracketleft" unicode="[" horiz-adv-x="302" 
d="M235 692v-80h-85v-580h85v-80h-187v740h187z" />
    <glyph glyph-name="backslash" unicode="\" horiz-adv-x="350" 
d="M330 -48h-105l-212 739h105z" />
    <glyph glyph-name="bracketright" unicode="]" horiz-adv-x="302" 
d="M133 32v580h-85v80h187v-740h-187v80h85z" />
    <glyph glyph-name="asciicircum" unicode="^" horiz-adv-x="415" 
d="M151 650h91l106 -289h-84l-67 185l-66 -185h-83z" />
    <glyph glyph-name="underscore" unicode="_" horiz-adv-x="460" 
d="M48 102h344v-102h-344v102z" />
    <glyph glyph-name="grave" unicode="`" horiz-adv-x="185" 
d="M114 650l51 -108h-90l-55 108h94z" />
    <glyph glyph-name="a" unicode="a" 
d="M31 230q0 104 62.5 170.5t158.5 66.5q94 0 145 -67v60h107v-460h-107v59q-52 -67 -145 -67q-96 0 -158.5 67.5t-62.5 170.5zM136 230q0 -60 36 -98q36 -39 95 -39t94.5 38.5t35.5 98.5t-35.5 98t-94.5 38t-95 -38t-36 -98z" />
    <glyph glyph-name="b" unicode="b" 
d="M48 650h107v-250q51 67 145 67q96 0 158 -66.5t62 -170.5q0 -103 -62 -170.5t-158 -67.5q-93 0 -145 67v-59h-107v650zM191 132q35 -39 94 -39t95 38.5t36 98.5t-36 98t-95 38t-94.5 -38t-35.5 -98t36 -98z" />
    <glyph glyph-name="c" unicode="c" horiz-adv-x="494" 
d="M97 402q65 66 169 66q122 0 187 -93l-77 -60q-39 51 -107 51q-59 0 -96 -38t-37 -98t37 -98.5t96 -38.5q69 0 107 50l77 -58q-65 -94 -187 -94q-104 0 -169.5 67t-65.5 172t66 172z" />
    <glyph glyph-name="d" unicode="d" 
d="M31 230q0 104 62.5 170.5t158.5 66.5q94 0 145 -67v250h107v-650h-107v59q-52 -67 -145 -67q-96 0 -158.5 67.5t-62.5 170.5zM136 230q0 -60 36 -98q36 -39 95 -39t94.5 38.5t35.5 98.5t-35.5 98t-94.5 38t-95 -38t-36 -98z" />
    <glyph glyph-name="e" unicode="e" horiz-adv-x="532" 
d="M94 401q63 67 166 67q100 0 160.5 -67t60.5 -171v-30h-346q8 -54 43.5 -85.5t86.5 -31.5q81 0 120 56l74 -54q-30 -44 -81 -69t-113 -25q-104 0 -169 67.5t-65 171.5t63 171zM136 269h245q-9 51 -40.5 82.5t-80.5 31.5q-50 0 -82.5 -30.5t-41.5 -83.5z" />
    <glyph glyph-name="f" unicode="f" horiz-adv-x="345" 
d="M79 460v49q0 68 35.5 104.5t103.5 36.5h89v-84h-56q-64 0 -64 -64v-42h109v-82h-109v-378h-108v378h-61v82h61z" />
    <glyph glyph-name="g" unicode="g" 
d="M31 230q0 103 62 170t158 67q92 0 146 -67v60h107v-427q0 -101 -65 -164t-179 -63q-124 0 -194 83l71 59q47 -51 123 -51q52 0 94.5 33t42.5 103v27q-53 -68 -146 -68q-96 0 -158 67.5t-62 170.5zM172 132q35 -39 94 -39t95 38.5t36 98.5t-36 98t-95 38t-94.5 -38
t-35.5 -98t36 -98z" />
    <glyph glyph-name="h" unicode="h" horiz-adv-x="538" 
d="M48 650h107v-239q48 56 135 56q74 0 127.5 -45t53.5 -140v-282h-108v266q0 57 -31.5 83.5t-73.5 26.5q-41 0 -72 -26.5t-31 -83.5v-266h-107v650z" />
    <glyph glyph-name="i" unicode="i" horiz-adv-x="236" 
d="M54 0v460h109l-1 -460h-108zM48 599q0 27 18 43t42 16t42.5 -16t18.5 -43t-18 -44q-19 -17 -43 -17t-42 17t-18 44z" />
    <glyph glyph-name="j" unicode="j" horiz-adv-x="247" 
d="M-1 -100q32 0 49.5 13t17.5 51v496h108v-518q0 -56 -34.5 -91t-103.5 -35h-60v84h23zM77 642q18 16 42 16t42 -16t18 -43t-18 -44t-42 -17q-23 0 -42 17t-19 44t19 43z" />
    <glyph glyph-name="k" unicode="k" horiz-adv-x="496" 
d="M48 0v650h107v-374l165 184h127l-196 -218l217 -242h-127l-186 207v-207h-107z" />
    <glyph glyph-name="l" unicode="l" horiz-adv-x="223" 
d="M155 0h-107v650h108z" />
    <glyph glyph-name="m" unicode="m" horiz-adv-x="819" 
d="M48 460h107v-50q48 57 127 57q101 0 145 -75q50 75 153 75q72 0 122 -44t50 -141v-282h-108v268q0 56 -29.5 80.5t-66.5 24.5t-66 -24.5t-29 -80.5v-268h-107v268q0 56 -29.5 80.5t-66.5 24.5t-66 -24.5t-29 -80.5v-268h-107v460z" />
    <glyph glyph-name="n" unicode="n" horiz-adv-x="538" 
d="M48 460h107v-49q48 56 135 56q74 0 127.5 -45t53.5 -140v-282h-108v266q0 57 -31.5 83.5t-73.5 26.5q-41 0 -72 -26.5t-31 -83.5v-266h-107v460z" />
    <glyph glyph-name="o" unicode="o" horiz-adv-x="555" 
d="M31 230q0 104 66.5 171.5t170.5 67.5t170 -67t66 -172q0 -103 -66 -171t-170 -68t-170.5 68t-66.5 171zM138 230q0 -59 36 -98t94 -39t93.5 39t35.5 98t-35.5 97.5t-93.5 38.5t-94 -38.5t-36 -97.5z" />
    <glyph glyph-name="p" unicode="p" 
d="M48 460h107v-60q52 67 145 67q96 0 158 -67.5t62 -170.5q0 -104 -62 -170.5t-158 -66.5q-93 0 -145 67v-243h-107v644zM191 131q35 -38 94 -38t95 38t36 98t-36 98.5t-95 38.5t-94.5 -38.5t-35.5 -98.5t36 -98z" />
    <glyph glyph-name="q" unicode="q" 
d="M31 229q0 103 62.5 170.5t158.5 67.5q93 0 145 -67v60h107v-644h-107v243q-52 -67 -145 -67q-96 0 -158.5 66.5t-62.5 170.5zM136 229q0 -60 36 -98t95 -38t94.5 38t35.5 98t-35.5 98.5t-94.5 38.5t-95 -38.5t-36 -98.5z" />
    <glyph glyph-name="r" unicode="r" horiz-adv-x="355" 
d="M48 460h107v-83q53 88 162 90v-101q-25 0 -48.5 -5.5t-51.5 -19t-45 -44t-17 -74.5v-223h-107v460z" />
    <glyph glyph-name="s" unicode="s" horiz-adv-x="451" 
d="M96 145q10 -26 47.5 -49t81.5 -23q80 0 80 55q0 13 -6.5 22.5t-20.5 17t-23.5 11t-30 9.5t-24.5 7l-17 5q-17 5 -24 7.5t-25.5 10t-28 14t-24 17.5t-21.5 22.5t-13 27.5t-6 34q0 67 51 102t130 35q70 0 118.5 -27.5t67.5 -67.5l-71 -45q-11 21 -46 39t-73 18
q-35 0 -54 -13.5t-19 -35.5q0 -12 6 -21.5t20 -16.5t23 -11t29 -9.5t24 -6.5q1 0 13.5 -4t18.5 -6t20 -7t22 -9.5t21.5 -11.5t21.5 -14t17.5 -17t15 -20.5t9.5 -24t4 -27.5q0 -70 -49 -107.5t-137 -37.5q-78 0 -131 31.5t-72 77.5z" />
    <glyph glyph-name="t" unicode="t" horiz-adv-x="333" 
d="M18 460h61v141h108v-141h102v-82h-102v-236q0 -35 17 -46.5t45 -11.5h35v-84h-78q-127 0 -127 125v253h-61v82z" />
    <glyph glyph-name="u" unicode="u" horiz-adv-x="538" 
d="M48 460h107v-266q0 -57 32 -83.5t73 -26.5t72 26.5t31 83.5v266h108v-460h-108v48q-48 -56 -135 -56q-74 0 -127 45.5t-53 140.5v282z" />
    <glyph glyph-name="v" unicode="v" horiz-adv-x="505" 
d="M9 460h111l122 -314l124 314h112l-183 -460h-105z" />
    <glyph glyph-name="w" unicode="w" horiz-adv-x="749" 
d="M121 460l98 -308l107 308h80l106 -308l98 308h112l-152 -460h-105l-100 294l-101 -294h-105l-149 460h111z" />
    <glyph glyph-name="x" unicode="x" horiz-adv-x="514" 
d="M18 460h124l105 -145l105 145h124l-167 -230l167 -230h-124l-105 145l-105 -145h-124l167 230z" />
    <glyph glyph-name="y" unicode="y" horiz-adv-x="505" 
d="M120 460l122 -311l124 311h112l-256 -644h-105l73 184l-181 460h111z" />
    <glyph glyph-name="z" unicode="z" horiz-adv-x="426" 
d="M378 460v-81l-215 -290h213v-89h-348v81l215 290h-213v89h348z" />
    <glyph glyph-name="braceleft" unicode="{" horiz-adv-x="353" 
d="M63 357q15 0 25.5 13t10.5 37v179q0 106 90 106h97v-80h-49q-33 0 -33 -43v-162q0 -62 -51 -85q51 -23 51 -85v-162q0 -43 33 -43h49v-80h-97q-90 0 -90 106v179q0 24 -10.5 37t-25.5 13h-15v70h15z" />
    <glyph glyph-name="bar" unicode="|" horiz-adv-x="217" 
d="M150 -48h-102v740h102v-740z" />
    <glyph glyph-name="braceright" unicode="}" horiz-adv-x="353" 
d="M48 692h97q90 0 90 -106v-179q0 -24 10.5 -37t25.5 -13h15v-70h-15q-15 0 -25.5 -13t-10.5 -37v-179q0 -106 -90 -106h-97v80h49q33 0 33 43v162q0 62 51 85q-51 23 -51 85v162q0 43 -33 43h-49v80z" />
    <glyph glyph-name="asciitilde" unicode="~" horiz-adv-x="589" 
d="M85 365q37 45 105 45q26 0 50 -10.5t33 -17.5t28 -25q43 -40 73 -40q26 0 45 17.5t19 59.5h83q0 -71 -38 -116t-109 -45q-26 0 -49.5 8.5t-34.5 17t-28 24.5q-3 3 -9 8.5t-8.5 8t-8 7t-8.5 6.5t-7.5 4.5t-8.5 3.5t-9 2t-11 1q-29 0 -45 -22.5t-16 -52.5h-83q0 71 37 116z
" />
    <glyph glyph-name="exclamdown" unicode="&#xa1;" horiz-adv-x="183" 
d="M31 468h97l7 -468h-112zM38 638q17 17 41 17q25 0 42 -17t17 -42t-17 -42t-42 -17q-24 0 -41.5 17t-17.5 42t18 42z" />
    <glyph glyph-name="cent" unicode="&#xa2;" horiz-adv-x="653" 
d="M108 524q59 82 167 103v70h102v-66q129 -12 209 -129l-93 -60q-58 83 -150 83q-82 0 -134.5 -51.5t-52.5 -143.5t52.5 -144t134.5 -52q94 0 150 79l93 -56q-80 -117 -209 -129v-76h-102v80q-108 21 -167.5 103.5t-59.5 194.5t60 194z" />
    <glyph glyph-name="sterling" unicode="&#xa3;" horiz-adv-x="525" 
d="M48 83q142 0 142 117q0 41 -17 96h-119v59h97q-30 75 -30 133q0 72 53.5 125t174.5 53q48 0 105 -9v-80q-49 9 -87 9q-24 0 -59 -6.5t-55 -36.5t-20 -68q0 -5 1.5 -30t25.5 -83l3 -7h160v-59h-140q12 -44 12 -81q0 -83 -59 -132h221v-83h-409v83z" />
    <glyph glyph-name="currency" unicode="&#xa4;" horiz-adv-x="578" 
d="M123 223q-26 43 -26 100q0 58 26 101l-73 73l57 55l71 -71q46 30 103 30t101 -29l70 70l57 -53l-72 -74q27 -44 27 -102q0 -55 -26 -102l73 -73l-57 -55l-71 71q-46 -30 -102 -30q-59 0 -104 31l-70 -70l-59 53zM209 247q29 -30 72 -30t71.5 29.5t28.5 76.5t-28.5 76
t-71.5 29t-72 -29t-29 -76t29 -76z" />
    <glyph glyph-name="yen" unicode="&#xa5;" horiz-adv-x="612" 
d="M11 650h128l159 -255l159 255h128l-214 -343h128v-59h-145v-78h145v-58h-145v-112h-111v112h-146v58h146v78h-146v59h127z" />
    <glyph glyph-name="brokenbar" unicode="&#xa6;" horiz-adv-x="217" 
d="M150 692v-304h-102v304h102zM48 -48v303h102v-303h-102z" />
    <glyph glyph-name="section" unicode="&#xa7;" horiz-adv-x="474" 
d="M48 87l83 28q9 -33 40 -48t67 -15q84 0 84 61q0 26 -23.5 41.5t-69.5 30.5q-22 8 -30 10.5t-32 12.5t-36 19.5t-28.5 24t-23.5 33t-7 39.5q0 80 69 112q-66 33 -66 104q0 60 45.5 97t117.5 37q64 0 104 -27t54 -69l-76 -33q-15 46 -82 46q-38 0 -59 -14t-21 -37
q0 -37 82 -63q4 -1 24.5 -7t31 -10t30.5 -12.5t31.5 -18t24.5 -23t19 -32t6 -40.5q0 -83 -73 -114q71 -36 71 -107q0 -74 -48.5 -109t-120.5 -35q-76 0 -122.5 32.5t-65.5 85.5zM155 333q0 -27 25.5 -44.5t59.5 -17.5q40 0 62 17t22 46t-23 45.5t-66 16.5q-38 0 -59 -17
t-21 -46z" />
    <glyph glyph-name="dieresis" unicode="&#xa8;" horiz-adv-x="328" 
d="M20 633q0 22 15.5 35.5t35.5 13.5t36 -13.5t16 -35.5q0 -23 -16 -37q-16 -15 -36 -15t-35.5 14.5t-15.5 37.5zM206 633q0 22 15.5 35.5t35.5 13.5t35.5 -13.5t15.5 -35.5q0 -24 -15 -38q-16 -14 -36 -14t-35.5 14t-15.5 38z" />
    <glyph glyph-name="copyright" unicode="&#xa9;" horiz-adv-x="769" 
d="M140 564q91 94 235 94t235 -94t91 -239q0 -147 -91 -240t-235 -93q-146 0 -236.5 93.5t-90.5 239.5q0 145 92 239zM106 325q0 -111 71.5 -193t197.5 -82q128 0 197.5 81.5t69.5 193.5t-69.5 193.5t-197.5 81.5t-198.5 -81.5t-70.5 -193.5zM260 453q48 50 124 50
q92 0 140 -69l-50 -36q-31 46 -90 46q-42 0 -77.5 -29.5t-35.5 -88.5t35.5 -89t77.5 -30q56 0 90 45l50 -34q-48 -70 -140 -70q-76 0 -124 50.5t-48 127.5t48 127z" />
    <glyph glyph-name="guillemotleft" unicode="&#xab;" horiz-adv-x="653" 
d="M299 321l172 186h130l-171 -186l171 -186h-130zM33 321l172 186h129l-171 -186l171 -186h-129z" />
    <glyph glyph-name="logicalnot" unicode="&#xac;" horiz-adv-x="538" 
d="M48 411h422v-227h-102v125h-320v102z" />
    <glyph glyph-name="registered" unicode="&#xae;" horiz-adv-x="767" 
d="M48 325q0 144 91.5 238.5t235.5 94.5q143 0 234 -94.5t91 -238.5t-91 -238.5t-234 -94.5q-144 0 -235.5 94.5t-91.5 238.5zM123 226q17 -49 49.5 -88.5t85 -63.5t117.5 -24q126 0 196 82.5t70 192.5t-70 192.5t-196 82.5q-65 0 -117.5 -24t-85 -63.5t-49.5 -88t-17 -99.5
t17 -99zM244 495h167q41 0 72 -30.5t31 -80.5q0 -40 -21.5 -69t-53.5 -39l82 -127h-70l-79 123h-67v-123h-61v346zM401 332q21 0 36 14.5t15 37.5t-15 38t-36 15h-96v-105h96z" />
    <glyph glyph-name="macron" unicode="&#xaf;" horiz-adv-x="229" 
d="M20 650h189v-70h-189v70z" />
    <glyph glyph-name="degree" unicode="&#xb0;" horiz-adv-x="324" 
d="M76 623q34 33 87 33q52 0 86 -33.5t34 -86.5q0 -52 -34.5 -86t-85.5 -34q-53 0 -87.5 34t-34.5 86q0 53 35 87zM99 536q0 -27 18.5 -44.5t45.5 -17.5q26 0 44 17.5t18 44.5t-18 44.5t-44 17.5q-27 0 -45.5 -17.5t-18.5 -44.5z" />
    <glyph glyph-name="plusminus" unicode="&#xb1;" horiz-adv-x="474" 
d="M48 346v71h138v86h83v-86h138v-71h-138v-87h-83v87h-138zM48 204h359v-71h-359v71z" />
    <glyph glyph-name="twosuperior" unicode="&#xb2;" horiz-adv-x="340" 
d="M75 633q36 27 90 27q63 0 100 -31.5t37 -84.5q0 -34 -24 -72.5t-41.5 -56t-50.5 -46.5l-52 -45h168v-62h-271l-1 56l78 67q38 32 58 51t43.5 50.5t23.5 53.5q0 26 -17.5 41t-50.5 15q-28 0 -49.5 -15.5t-27.5 -34.5l-60 27q10 33 47 60z" />
    <glyph glyph-name="threesuperior" unicode="&#xb3;" horiz-adv-x="366" 
d="M70 358q13 -17 38 -28.5t54 -11.5q37 0 60.5 19t23.5 51t-23.5 51t-60.5 19q-32 0 -68 -11v49l115 92h-154v62h249v-57l-99 -85q46 -9 77 -38t31 -82q0 -66 -44 -100.5t-107 -34.5q-42 0 -79 17t-55 43z" />
    <glyph glyph-name="acute" unicode="&#xb4;" horiz-adv-x="185" 
d="M71 650h94l-55 -108h-90z" />
    <glyph glyph-name="paragraph" unicode="&#xb6;" horiz-adv-x="565" 
d="M82 606q41 44 110 44h105v-650h-102v338q-73 0 -113.5 40t-40.5 111q0 72 41 117zM395 650h102v-650h-102v650z" />
    <glyph glyph-name="periodcentered" unicode="&#xb7;" horiz-adv-x="176" 
d="M28 326q0 26 17 43t43 17t43.5 -17t17.5 -43q0 -27 -17 -44q-18 -17 -44 -17t-43 17t-17 44z" />
    <glyph glyph-name="cedilla" unicode="&#xb8;" horiz-adv-x="195" 
d="M81 -128q38 0 38 20t-43 20q-26 0 -37 -6l-1 46l30 48h62l-24 -42q68 -11 68 -66q0 -74 -93 -74q-38 0 -59 10v57q17 -13 59 -13z" />
    <glyph glyph-name="onesuperior" unicode="&#xb9;" horiz-adv-x="235" 
d="M168 650v-392h-67v331h-87v61h154z" />
    <glyph glyph-name="guillemotright" unicode="&#xbb;" horiz-adv-x="637" 
d="M462 321l-171 186h126l172 -186l-172 -186h-126zM154 507l172 -186l-172 -186h-126l171 186l-171 186h126z" />
    <glyph glyph-name="onequarter" unicode="&#xbc;" horiz-adv-x="506" 
d="M235 61v36l164 225h55v-220h38v-41h-38v-61h-55v61h-164zM427 650h55l-401 -650h-55zM11 650h129v-328h-57v277h-72v51zM399 102v149l-110 -149h110z" />
    <glyph glyph-name="onehalf" unicode="&#xbd;" horiz-adv-x="560" 
d="M318 251q7 26 37 48t73 22q51 0 81 -25.5t30 -68.5q0 -61 -94 -140l-42 -37h136v-50h-219v45l62 54q32 28 47 42t34.5 40t19.5 44q0 20 -14.5 32t-40.5 12q-22 0 -39.5 -12t-22.5 -28zM25 0l401 650h55l-401 -650h-55zM11 650h129v-328h-57v277h-72v51z" />
    <glyph glyph-name="threequarters" unicode="&#xbe;" horiz-adv-x="559" 
d="M452 322h55v-220h38v-41h-38v-61h-55v61h-164v36zM14 371l35 37q24 -32 76 -32q31 0 50 15.5t19 41.5q0 27 -19 42.5t-50 15.5q-29 0 -57 -9l1 40l95 77h-128v51h206v-47l-81 -70q38 -8 63.5 -32t25.5 -68q0 -54 -36.5 -82.5t-88.5 -28.5q-35 0 -65.5 13.5t-45.5 35.5z
M483 650h55l-401 -650h-55zM342 102h110v149z" />
    <glyph glyph-name="questiondown" unicode="&#xbf;" horiz-adv-x="457" 
d="M29 246q14 33 27.5 48.5t42.5 44.5q2 2 12.5 13.5t12.5 14t11 12.5t11 13.5t8 12.5t8 14t5 13t4 15t1 15v19h112v-19q0 -82 -70 -147q-26 -26 -34.5 -35t-24.5 -29t-21 -36.5t-5 -36.5q0 -37 26 -59t72 -22q39 0 74 24t46 58l96 -46q-22 -58 -79.5 -98t-136.5 -40
q-94 0 -153.5 46.5t-59.5 131.5q0 39 15 73zM184 644q17 17 43 17q25 0 42 -16.5t17 -42.5t-17 -42.5t-42 -16.5q-26 0 -43 17t-17 42t17 42z" />
    <glyph glyph-name="Agrave" unicode="&#xc0;" horiz-adv-x="659" 
d="M282 650h85l265 -650h-118l-50 125h-278l-50 -125h-118zM424 227l-99 248l-99 -248h198zM322 818l51 -108h-90l-55 108h94z" />
    <glyph glyph-name="Aacute" unicode="&#xc1;" horiz-adv-x="659" 
d="M282 650h85l265 -650h-118l-50 125h-278l-50 -125h-118zM424 227l-99 248l-99 -248h198zM331 818h94l-55 -108h-90z" />
    <glyph glyph-name="Acircumflex" unicode="&#xc2;" horiz-adv-x="659" 
d="M282 650h85l265 -650h-118l-50 125h-278l-50 -125h-118zM424 227l-99 248l-99 -248h198zM195 710l69 108h123l69 -108h-90l-40 69l-40 -69h-91z" />
    <glyph glyph-name="Atilde" unicode="&#xc3;" horiz-adv-x="659" 
d="M282 650h85l265 -650h-118l-50 125h-278l-50 -125h-118zM424 227l-99 248l-99 -248h198zM170 706q1 48 26 79t70 31q43 0 73 -34q23 -25 43 -25q34 0 36 46h64q-1 -49 -26 -79.5t-74 -30.5q-43 0 -74 35q-22 24 -40 24t-26 -14t-8 -32h-64z" />
    <glyph glyph-name="Adieresis" unicode="&#xc4;" horiz-adv-x="659" 
d="M18 0l264 650h85l265 -650h-118l-50 125h-278l-50 -125h-118zM424 227l-99 248l-99 -248h198zM198 786q15 13 35 13t36 -13.5t16 -35.5q0 -23 -16 -37q-16 -15 -36 -15t-35.5 14.5t-15.5 37.5q0 22 16 36zM368 750q0 22 15.5 35.5t35.5 13.5t35.5 -13.5t15.5 -35.5
q0 -24 -15 -38q-16 -14 -36 -14t-35.5 14t-15.5 38z" />
    <glyph glyph-name="Aring" unicode="&#xc5;" horiz-adv-x="659" 
d="M282 650h85l265 -650h-118l-50 125h-278l-50 -125h-118zM235 781q0 39 25.5 63t65.5 24t65 -24t25 -63q0 -37 -25.5 -61.5t-64.5 -24.5q-40 0 -65.5 24.5t-25.5 61.5zM424 227l-99 248l-99 -248h198zM298 756q8 -12 28 -12t28.5 11.5t8.5 25.5t-8.5 26t-28.5 12
t-28.5 -12t-8.5 -26t9 -25z" />
    <glyph glyph-name="AE" unicode="&#xc6;" horiz-adv-x="968" 
d="M18 0l271 650h616v-102h-302v-172h281v-102h-281v-172h302v-102h-414v274h-241l-114 -274h-118zM292 376h199v172h-127z" />
    <glyph glyph-name="Ccedilla" unicode="&#xc7;" horiz-adv-x="672" 
d="M130 564q91 94 235 94q172 0 263 -131l-90 -66q-27 38 -72.5 62t-100.5 24q-96 0 -156 -62.5t-60 -159.5t60 -159.5t156 -62.5q54 0 99.5 25.5t73.5 63.5l90 -69q-83 -120 -237 -130l-18 -31q69 -11 69 -66q0 -74 -94 -74q-36 0 -59 10v57q17 -13 59 -13q38 0 38 20
t-42 20q-28 0 -38 -6l-1 46l24 38q-130 12 -210.5 103.5t-80.5 227.5q0 145 92 239z" />
    <glyph glyph-name="Egrave" unicode="&#xc8;" horiz-adv-x="544" 
d="M48 650h433v-102h-322v-172h301v-102h-301v-172h322v-102h-433v650zM172 818h94l51 -108h-90z" />
    <glyph glyph-name="Eacute" unicode="&#xc9;" horiz-adv-x="544" 
d="M48 650h433v-102h-322v-172h301v-102h-301v-172h322v-102h-433v650zM224 710l51 108h94l-55 -108h-90z" />
    <glyph glyph-name="Ecircumflex" unicode="&#xca;" horiz-adv-x="544" 
d="M481 650v-102h-322v-172h301v-102h-301v-172h322v-102h-433v650h433zM208 818h123l69 -108h-90l-40 69l-40 -69h-91z" />
    <glyph glyph-name="Edieresis" unicode="&#xcb;" horiz-adv-x="544" 
d="M48 650h433v-102h-322v-172h301v-102h-301v-172h322v-102h-433v650zM142 786q15 13 35 13t36 -13.5t16 -35.5q0 -23 -16 -37q-16 -15 -36 -15t-35.5 14.5t-15.5 37.5q0 22 16 36zM312 750q0 22 15.5 35.5t35.5 13.5t35.5 -13.5t15.5 -35.5q0 -24 -15 -38q-16 -14 -36 -14
t-35.5 14t-15.5 38z" />
    <glyph glyph-name="Igrave" unicode="&#xcc;" horiz-adv-x="226" 
d="M98 818l51 -108h-90l-55 108h94zM159 0h-111v650h111v-650z" />
    <glyph glyph-name="Iacute" unicode="&#xcd;" horiz-adv-x="226" 
d="M107 818h94l-55 -108h-90zM159 0h-111v650h111v-650z" />
    <glyph glyph-name="Icircumflex" unicode="&#xce;" horiz-adv-x="226" 
d="M159 650v-650h-111v650h111zM40 818h123l69 -108h-90l-40 69l-40 -69h-91z" />
    <glyph glyph-name="Idieresis" unicode="&#xcf;" horiz-adv-x="226" 
d="M48 650h111v-650h-111v650zM-42 750q0 22 15.5 35.5t35.5 13.5t36 -13.5t16 -35.5q0 -23 -16 -37q-16 -15 -36 -15t-35.5 14.5t-15.5 37.5zM144 750q0 22 15.5 35.5t35.5 13.5t35.5 -13.5t15.5 -35.5q0 -24 -15 -38q-16 -14 -36 -14t-35.5 14t-15.5 38z" />
    <glyph glyph-name="Ntilde" unicode="&#xd1;" horiz-adv-x="634" 
d="M156 650l299 -457v457h111v-650h-108l-299 457v-457h-111v650h108zM155 706q1 48 26 79t70 31q43 0 73 -34q23 -25 43 -25q34 0 36 46h64q-1 -49 -26 -79.5t-74 -30.5q-43 0 -74 35q-22 24 -40 24t-26 -14t-8 -32h-64z" />
    <glyph glyph-name="Ograve" unicode="&#xd2;" horiz-adv-x="742" 
d="M130 564q91 94 235 94t234.5 -93.5t90.5 -239.5t-90 -239q-91 -94 -235 -94t-235.5 94t-91.5 239t92 239zM209 166q60 -63 156 -63t154.5 62.5t58.5 159.5t-58.5 159.5t-154.5 62.5t-156 -62.5t-60 -159.5t60 -159zM361 818l51 -108h-90l-55 108h94z" />
    <glyph glyph-name="Oacute" unicode="&#xd3;" horiz-adv-x="742" 
d="M38 325q0 145 91.5 239t235.5 94t234.5 -93.5t90.5 -239.5t-90 -239q-91 -94 -235 -94t-235.5 94t-91.5 239zM209 166q60 -63 156 -63t154.5 62.5t58.5 159.5t-58.5 159.5t-154.5 62.5t-156 -62.5t-60 -159.5t60 -159zM319 710l51 108h94l-55 -108h-90z" />
    <glyph glyph-name="Ocircumflex" unicode="&#xd4;" horiz-adv-x="742" 
d="M130 564q91 94 235 94t234.5 -93.5t90.5 -239.5t-90 -239q-91 -94 -235 -94t-235.5 94t-91.5 239t92 239zM149 325q0 -97 60 -159q60 -63 156 -63t154.5 62.5t58.5 159.5t-58.5 159.5t-154.5 62.5t-156 -62.5t-60 -159.5zM234 710l69 108h123l69 -108h-90l-40 69l-40 -69
h-91z" />
    <glyph glyph-name="Otilde" unicode="&#xd5;" horiz-adv-x="742" 
d="M130 564q91 94 235 94t234.5 -93.5t90.5 -239.5t-90 -239q-91 -94 -235 -94t-235.5 94t-91.5 239t92 239zM209 166q60 -63 156 -63t154.5 62.5t58.5 159.5t-58.5 159.5t-154.5 62.5t-156 -62.5t-60 -159.5t60 -159zM209 706q1 48 26 79t70 31q43 0 73 -34q23 -25 43 -25
q34 0 36 46h64q-1 -49 -26 -79.5t-74 -30.5q-43 0 -74 35q-22 24 -40 24t-26 -14t-8 -32h-64z" />
    <glyph glyph-name="Odieresis" unicode="&#xd6;" horiz-adv-x="742" 
d="M130 564q91 94 235 94t234.5 -93.5t90.5 -239.5t-90 -239q-91 -94 -235 -94t-235.5 94t-91.5 239t92 239zM149 325q0 -97 60 -159q60 -63 156 -63t154.5 62.5t58.5 159.5t-58.5 159.5t-154.5 62.5t-156 -62.5t-60 -159.5zM221 750q0 22 15.5 35.5t35.5 13.5t36 -13.5
t16 -35.5q0 -23 -16 -37q-16 -15 -36 -15t-35.5 14.5t-15.5 37.5zM407 750q0 22 15.5 35.5t35.5 13.5t35.5 -13.5t15.5 -35.5q0 -24 -15 -38q-16 -14 -36 -14t-35.5 14t-15.5 38z" />
    <glyph glyph-name="multiply" unicode="&#xd7;" horiz-adv-x="488" 
d="M420 447l-124 -125l124 -123l-63 -62l-124 123l-122 -123l-63 59l124 124l-124 124l63 62l124 -123l123 123z" />
    <glyph glyph-name="Oslash" unicode="&#xd8;" horiz-adv-x="742" 
d="M596 568q94 -94 94 -243q0 -146 -90.5 -239.5t-234.5 -93.5q-101 0 -180 49l-32 -41h-92l68 87q-91 93 -91 238t91.5 239t235.5 94q99 0 174 -46l36 46h92zM149 325q0 -89 49 -149l272 347q-45 24 -105 24q-98 0 -157 -61.5t-59 -160.5zM365 103q97 0 155 61.5t58 160.5
q0 94 -51 154l-273 -349q48 -27 111 -27z" />
    <glyph glyph-name="Ugrave" unicode="&#xd9;" horiz-adv-x="614" 
d="M159 650v-410q0 -69 38 -104.5t100 -35.5t100 35.5t38 104.5v410h112v-422q0 -101 -67 -168.5t-183 -67.5t-182.5 67.5t-66.5 168.5v422h111zM203 818h94l51 -108h-90z" />
    <glyph glyph-name="Uacute" unicode="&#xda;" horiz-adv-x="614" 
d="M48 228v422h111v-410q0 -69 38 -104.5t100 -35.5t100 35.5t38 104.5v410h112v-422q0 -101 -67 -168.5t-183 -67.5t-182.5 67.5t-66.5 168.5zM255 710l51 108h94l-55 -108h-90z" />
    <glyph glyph-name="Ucircumflex" unicode="&#xdb;" horiz-adv-x="614" 
d="M159 650v-410q0 -69 38 -104.5t100 -35.5t100 35.5t38 104.5v410h112v-422q0 -101 -67 -168.5t-183 -67.5t-182.5 67.5t-66.5 168.5v422h111zM170 710l69 108h123l69 -108h-90l-40 69l-40 -69h-91z" />
    <glyph glyph-name="Udieresis" unicode="&#xdc;" horiz-adv-x="614" 
d="M159 650v-410q0 -69 38 -104.5t100 -35.5t100 35.5t38 104.5v410h112v-422q0 -101 -67 -168.5t-183 -67.5t-182.5 67.5t-66.5 168.5v422h111zM173 786q15 13 35 13t36 -13.5t16 -35.5q0 -23 -16 -37q-16 -15 -36 -15t-35.5 14.5t-15.5 37.5q0 22 16 36zM359 786
q15 13 35 13t35.5 -13.5t15.5 -35.5q0 -24 -15 -38q-16 -14 -36 -14t-35.5 14t-15.5 38q0 22 16 36z" />
    <glyph glyph-name="Yacute" unicode="&#xdd;" horiz-adv-x="612" 
d="M11 650h128l159 -255l159 255h128l-231 -370v-280h-111v277zM252 710l51 108h94l-55 -108h-90z" />
    <glyph glyph-name="germandbls" unicode="&#xdf;" horiz-adv-x="535" 
d="M406 355q91 -51 91 -164q0 -83 -56 -137t-156 -54h-90v96h65q54 0 91.5 22.5t37.5 72.5t-38 73.5t-91 23.5h-65v90h56q52 0 86 26t34 70t-29 69.5t-73 25.5q-51 0 -82 -30.5t-31 -90.5v-448h-108v453q0 101 62 154.5t159 53.5q89 0 146 -47t57 -128q0 -85 -66 -131z" />
    <glyph glyph-name="agrave" unicode="&#xe0;" 
d="M31 230q0 104 62.5 170.5t158.5 66.5q94 0 145 -67v60h107v-460h-107v59q-52 -67 -145 -67q-96 0 -158.5 67.5t-62.5 170.5zM136 230q0 -60 36 -98q36 -39 95 -39t94.5 38.5t35.5 98.5t-35.5 98t-94.5 38t-95 -38t-36 -98zM196 635h94l51 -108h-90z" />
    <glyph glyph-name="aacute" unicode="&#xe1;" 
d="M31 230q0 104 62.5 170.5t158.5 66.5q94 0 145 -67v60h107v-460h-107v59q-52 -67 -145 -67q-96 0 -158.5 67.5t-62.5 170.5zM136 230q0 -60 36 -98q36 -39 95 -39t94.5 38.5t35.5 98.5t-35.5 98t-94.5 38t-95 -38t-36 -98zM299 635h94l-55 -108h-90z" />
    <glyph glyph-name="acircumflex" unicode="&#xe2;" 
d="M31 230q0 104 62.5 170.5t158.5 66.5q94 0 145 -67v60h107v-460h-107v59q-52 -67 -145 -67q-96 0 -158.5 67.5t-62.5 170.5zM136 230q0 -60 36 -98q36 -39 95 -39t94.5 38.5t35.5 98.5t-35.5 98t-94.5 38t-95 -38t-36 -98zM163 527l69 108h123l69 -108h-90l-40 69
l-40 -69h-91z" />
    <glyph glyph-name="atilde" unicode="&#xe3;" 
d="M94 401q62 66 158 66q94 0 145 -67v60h107v-460h-107v59q-52 -67 -145 -67q-96 0 -158.5 67.5t-62.5 170.5q0 104 63 171zM172 132q36 -39 95 -39t94.5 38.5t35.5 98.5t-35.5 98t-94.5 38t-95 -38t-36 -98t36 -98zM164 602q25 31 70 31q43 0 73 -34q23 -25 43 -25
q34 0 36 46h64q-1 -49 -26 -79.5t-74 -30.5q-43 0 -74 35q-22 24 -40 24t-26 -14t-8 -32h-64q1 48 26 79z" />
    <glyph glyph-name="adieresis" unicode="&#xe4;" 
d="M31 230q0 104 62.5 170.5t158.5 66.5q94 0 145 -67v60h107v-460h-107v59q-52 -67 -145 -67q-96 0 -158.5 67.5t-62.5 170.5zM136 230q0 -60 36 -98q36 -39 95 -39t94.5 38.5t35.5 98.5t-35.5 98t-94.5 38t-95 -38t-36 -98zM166 603q15 13 35 13t36 -13.5t16 -35.5
q0 -23 -16 -37q-16 -15 -36 -15t-35.5 14.5t-15.5 37.5q0 22 16 36zM352 603q15 13 35 13t35.5 -13.5t15.5 -35.5q0 -24 -15 -38q-16 -14 -36 -14t-35.5 14t-15.5 38q0 22 16 36z" />
    <glyph glyph-name="aring" unicode="&#xe5;" 
d="M31 230q0 104 62.5 170.5t158.5 66.5q94 0 145 -67v60h107v-460h-107v59q-52 -67 -145 -67q-96 0 -158.5 67.5t-62.5 170.5zM172 132q36 -39 95 -39t94.5 38.5t35.5 98.5t-35.5 98t-94.5 38t-95 -38t-36 -98t36 -98zM203 598q0 39 25.5 63t65.5 24t65 -24t25 -63
q0 -37 -25.5 -61.5t-64.5 -24.5q-40 0 -65.5 24.5t-25.5 61.5zM266 573q8 -12 28 -12t28.5 11.5t8.5 25.5t-8.5 26t-28.5 12t-28.5 -12t-8.5 -26t9 -25z" />
    <glyph glyph-name="ae" unicode="&#xe6;" horiz-adv-x="903" 
d="M632 467q95 0 157 -67t62 -170v-34h-330q8 -53 40.5 -82.5t79.5 -29.5q76 0 114 58l75 -51q-65 -99 -192 -99q-73 0 -128.5 36t-80.5 95q-40 -131 -200 -131q-198 0 -198 128q0 31 11 54.5t34.5 38t48 24t63.5 14.5t68.5 7t75.5 3q-1 70 -28 97t-75 27q-75 0 -100 -56
l-85 30q39 108 192 108q79 0 128.5 -33t65.5 -91q26 58 79 91t123 33zM639 381q-54 0 -84 -32.5t-35 -86.5h232q-6 57 -37.5 88t-75.5 31zM222 68q55 0 82 28t28 98q-123 -3 -157 -17q-38 -16 -39 -52q0 -57 86 -57z" />
    <glyph glyph-name="ccedilla" unicode="&#xe7;" horiz-adv-x="494" 
d="M31 230q0 105 65.5 171.5t169.5 66.5q122 0 187 -93l-77 -60q-39 51 -107 51q-59 0 -96 -38t-37 -98t37 -98.5t96 -38.5q69 0 107 50l77 -58q-56 -81 -159 -92l-17 -31q69 -11 69 -66q0 -74 -94 -74q-36 0 -59 10v57q17 -13 59 -13q38 0 38 20t-42 20q-28 0 -38 -6l-1 46
l23 37q-90 11 -145.5 76.5t-55.5 160.5z" />
    <glyph glyph-name="egrave" unicode="&#xe8;" horiz-adv-x="532" 
d="M31 230q0 104 63 171t166 67q100 0 160.5 -67t60.5 -171v-30h-346q8 -54 43.5 -85.5t86.5 -31.5q81 0 120 56l74 -54q-30 -44 -81 -69t-113 -25q-104 0 -169 67.5t-65 171.5zM136 269h245q-9 51 -40.5 82.5t-80.5 31.5q-50 0 -82.5 -30.5t-41.5 -83.5zM256 635l51 -108
h-90l-55 108h94z" />
    <glyph glyph-name="eacute" unicode="&#xe9;" horiz-adv-x="532" 
d="M94 401q63 67 166 67q100 0 160.5 -67t60.5 -171v-30h-346q8 -54 43.5 -85.5t86.5 -31.5q81 0 120 56l74 -54q-30 -44 -81 -69t-113 -25q-104 0 -169 67.5t-65 171.5t63 171zM381 269q-9 51 -40.5 82.5t-80.5 31.5q-50 0 -82.5 -30.5t-41.5 -83.5h245zM265 635h94
l-55 -108h-90z" />
    <glyph glyph-name="ecircumflex" unicode="&#xea;" horiz-adv-x="532" 
d="M94 401q63 67 166 67q100 0 160.5 -67t60.5 -171v-30h-346q8 -54 43.5 -85.5t86.5 -31.5q81 0 120 56l74 -54q-30 -44 -81 -69t-113 -25q-104 0 -169 67.5t-65 171.5t63 171zM136 269h245q-9 51 -40.5 82.5t-80.5 31.5q-50 0 -82.5 -30.5t-41.5 -83.5zM198 635h123
l69 -108h-90l-40 69l-40 -69h-91z" />
    <glyph glyph-name="edieresis" unicode="&#xeb;" horiz-adv-x="532" 
d="M31 230q0 104 63 171t166 67q100 0 160.5 -67t60.5 -171v-30h-346q8 -54 43.5 -85.5t86.5 -31.5q81 0 120 56l74 -54q-30 -44 -81 -69t-113 -25q-104 0 -169 67.5t-65 171.5zM136 269h245q-9 51 -40.5 82.5t-80.5 31.5q-50 0 -82.5 -30.5t-41.5 -83.5zM116 567
q0 22 15.5 35.5t35.5 13.5t36 -13.5t16 -35.5q0 -23 -16 -37q-16 -15 -36 -15t-35.5 14.5t-15.5 37.5zM318 603q15 13 35 13t35.5 -13.5t15.5 -35.5q0 -24 -15 -38q-16 -14 -36 -14t-35.5 14t-15.5 38q0 22 16 36z" />
    <glyph glyph-name="igrave" unicode="&#xec;" horiz-adv-x="231" 
d="M101 635l51 -108h-90l-55 108h94zM159 0h-108v460h108v-460z" />
    <glyph glyph-name="iacute" unicode="&#xed;" horiz-adv-x="231" 
d="M110 635h94l-55 -108h-90zM159 0h-108v460h108v-460z" />
    <glyph glyph-name="icircumflex" unicode="&#xee;" horiz-adv-x="231" 
d="M159 460v-460h-108v460h108zM43 635h123l69 -108h-90l-40 69l-40 -69h-91z" />
    <glyph glyph-name="idieresis" unicode="&#xef;" horiz-adv-x="231" 
d="M51 460h108v-460h-108v460zM-39 567q0 22 15.5 35.5t35.5 13.5t36 -13.5t16 -35.5q0 -23 -16 -37q-16 -15 -36 -15t-35.5 14.5t-15.5 37.5zM147 567q0 22 15.5 35.5t35.5 13.5t35.5 -13.5t15.5 -35.5q0 -24 -15 -38q-16 -14 -36 -14t-35.5 14t-15.5 38z" />
    <glyph glyph-name="ntilde" unicode="&#xf1;" horiz-adv-x="538" 
d="M48 460h107v-49q48 56 135 56q74 0 127.5 -45t53.5 -140v-282h-108v266q0 57 -31.5 83.5t-73.5 26.5q-41 0 -72 -26.5t-31 -83.5v-266h-107v460zM102 523q1 48 26 79t70 31q43 0 73 -34q23 -25 43 -25q34 0 36 46h64q-1 -49 -26 -79.5t-74 -30.5q-43 0 -74 35
q-22 24 -40 24t-26 -14t-8 -32h-64z" />
    <glyph glyph-name="ograve" unicode="&#xf2;" horiz-adv-x="555" 
d="M31 230q0 104 66.5 171.5t170.5 67.5t170 -67t66 -172q0 -103 -66 -171t-170 -68t-170.5 68t-66.5 171zM138 230q0 -59 36 -98t94 -39t93.5 39t35.5 98t-35.5 97.5t-93.5 38.5t-94 -38.5t-36 -97.5zM264 635l51 -108h-90l-55 108h94z" />
    <glyph glyph-name="oacute" unicode="&#xf3;" horiz-adv-x="555" 
d="M31 230q0 104 66.5 171.5t170.5 67.5t170 -67t66 -172q0 -103 -66 -171t-170 -68t-170.5 68t-66.5 171zM174 132q36 -39 94 -39t93.5 39t35.5 98t-35.5 97.5t-93.5 38.5t-94 -38.5t-36 -97.5t36 -98zM222 527l51 108h94l-55 -108h-90z" />
    <glyph glyph-name="ocircumflex" unicode="&#xf4;" horiz-adv-x="555" 
d="M31 230q0 104 66.5 171.5t170.5 67.5t170 -67t66 -172q0 -103 -66 -171t-170 -68t-170.5 68t-66.5 171zM138 230q0 -59 36 -98t94 -39t93.5 39t35.5 98t-35.5 97.5t-93.5 38.5t-94 -38.5t-36 -97.5zM137 527l69 108h123l69 -108h-90l-40 69l-40 -69h-91z" />
    <glyph glyph-name="otilde" unicode="&#xf5;" horiz-adv-x="555" 
d="M98 402q66 67 170 67t170 -67t66 -172q0 -103 -66 -171t-170 -68t-170.5 68t-66.5 171q0 104 67 172zM174 132q36 -39 94 -39t93.5 39t35.5 98t-35.5 97.5t-93.5 38.5t-94 -38.5t-36 -97.5t36 -98zM112 523q1 48 26 79t70 31q43 0 73 -34q23 -25 43 -25q34 0 36 46h64
q-1 -49 -26 -79.5t-74 -30.5q-43 0 -74 35q-22 24 -40 24t-26 -14t-8 -32h-64z" />
    <glyph glyph-name="odieresis" unicode="&#xf6;" horiz-adv-x="555" 
d="M98 402q66 67 170 67t170 -67t66 -172q0 -103 -66 -171t-170 -68t-170.5 68t-66.5 171q0 104 67 172zM174 132q36 -39 94 -39t93.5 39t35.5 98t-35.5 97.5t-93.5 38.5t-94 -38.5t-36 -97.5t36 -98zM140 603q15 13 35 13t36 -13.5t16 -35.5q0 -23 -16 -37q-16 -15 -36 -15
t-35.5 14.5t-15.5 37.5q0 22 16 36zM310 567q0 22 15.5 35.5t35.5 13.5t35.5 -13.5t15.5 -35.5q0 -24 -15 -38q-16 -14 -36 -14t-35.5 14t-15.5 38z" />
    <glyph glyph-name="divide" unicode="&#xf7;" horiz-adv-x="518" 
d="M249 437q-25 0 -41.5 16.5t-16.5 42.5t16.5 42t41.5 16q26 0 42.5 -16t16.5 -42t-16.5 -42.5t-42.5 -16.5zM48 364h403v-84h-403v84zM249 90q-25 0 -41.5 16.5t-16.5 42.5q0 25 16.5 41.5t41.5 16.5q26 0 42.5 -16t16.5 -42t-16.5 -42.5t-42.5 -16.5z" />
    <glyph glyph-name="oslash" unicode="&#xf8;" horiz-adv-x="555" 
d="M429 410q75 -69 75 -180q0 -103 -66 -171t-170 -68q-77 0 -135 39l-23 -30h-43l39 51q-75 69 -75 179q0 104 66.5 171.5t170.5 67.5q75 0 134 -38l23 29h43zM138 230q0 -58 34 -95l165 212q-30 19 -69 19q-58 0 -94 -38.5t-36 -97.5zM268 93q58 0 93.5 39t35.5 98
q0 57 -34 96l-165 -214q30 -19 70 -19z" />
    <glyph glyph-name="ugrave" unicode="&#xf9;" horiz-adv-x="538" 
d="M48 460h107v-266q0 -57 32 -83.5t73 -26.5t72 26.5t31 83.5v266h108v-460h-108v48q-48 -56 -135 -56q-74 0 -127 45.5t-53 140.5v282zM260 635l51 -108h-90l-55 108h94z" />
    <glyph glyph-name="uacute" unicode="&#xfa;" horiz-adv-x="538" 
d="M155 460v-266q0 -57 32 -83.5t73 -26.5t72 26.5t31 83.5v266h108v-460h-108v48q-48 -56 -135 -56q-74 0 -127 45.5t-53 140.5v282h107zM269 635h94l-55 -108h-90z" />
    <glyph glyph-name="ucircumflex" unicode="&#xfb;" horiz-adv-x="538" 
d="M155 460v-266q0 -57 32 -83.5t73 -26.5t72 26.5t31 83.5v266h108v-460h-108v48q-48 -56 -135 -56q-74 0 -127 45.5t-53 140.5v282h107zM202 635h123l69 -108h-90l-40 69l-40 -69h-91z" />
    <glyph glyph-name="udieresis" unicode="&#xfc;" horiz-adv-x="538" 
d="M48 460h107v-266q0 -57 32 -83.5t73 -26.5t72 26.5t31 83.5v266h108v-460h-108v48q-48 -56 -135 -56q-74 0 -127 45.5t-53 140.5v282zM136 603q15 13 35 13t36 -13.5t16 -35.5q0 -23 -16 -37q-16 -15 -36 -15t-35.5 14.5t-15.5 37.5q0 22 16 36zM306 567q0 22 15.5 35.5
t35.5 13.5t35.5 -13.5t15.5 -35.5q0 -24 -15 -38q-16 -14 -36 -14t-35.5 14t-15.5 38z" />
    <glyph glyph-name="yacute" unicode="&#xfd;" horiz-adv-x="505" 
d="M120 460l122 -311l124 311h112l-256 -644h-105l73 184l-181 460h111zM247 635h94l-55 -108h-90z" />
    <glyph glyph-name="ydieresis" unicode="&#xff;" horiz-adv-x="505" 
d="M120 460l122 -311l124 311h112l-256 -644h-105l73 184l-181 460h111zM98 567q0 22 15.5 35.5t35.5 13.5t36 -13.5t16 -35.5q0 -23 -16 -37q-16 -15 -36 -15t-35.5 14.5t-15.5 37.5zM300 603q15 13 35 13t35.5 -13.5t15.5 -35.5q0 -24 -15 -38q-16 -14 -36 -14t-35.5 14
t-15.5 38q0 22 16 36z" />
    <glyph glyph-name="Amacron" unicode="&#x100;" horiz-adv-x="659" 
d="M18 0l264 650h85l265 -650h-118l-50 125h-278l-50 -125h-118zM424 227l-99 248l-99 -248h198zM421 778v-70h-189v70h189z" />
    <glyph glyph-name="amacron" unicode="&#x101;" 
d="M31 230q0 104 62.5 170.5t158.5 66.5q94 0 145 -67v60h107v-460h-107v59q-52 -67 -145 -67q-96 0 -158.5 67.5t-62.5 170.5zM136 230q0 -60 36 -98q36 -39 95 -39t94.5 38.5t35.5 98.5t-35.5 98t-94.5 38t-95 -38t-36 -98zM200 524v70h189v-70h-189z" />
    <glyph glyph-name="Abreve" unicode="&#x102;" horiz-adv-x="659" 
d="M282 650h85l265 -650h-118l-50 125h-278l-50 -125h-118zM226 227h198l-99 248zM278 811v-3q0 -19 13 -32.5t35 -13.5t34.5 13.5t12.5 32.5v3h64v-3q0 -47 -30.5 -75t-80.5 -28t-81 28t-31 75v3h64z" />
    <glyph glyph-name="abreve" unicode="&#x103;" 
d="M94 401q62 66 158 66q94 0 145 -67v60h107v-460h-107v59q-52 -67 -145 -67q-96 0 -158.5 67.5t-62.5 170.5q0 104 63 171zM136 230q0 -60 36 -98q36 -39 95 -39t94.5 38.5t35.5 98.5t-35.5 98t-94.5 38t-95 -38t-36 -98zM246 628v-3q0 -19 13 -32.5t35 -13.5t34.5 13.5
t12.5 32.5v3h64v-3q0 -47 -30.5 -75t-80.5 -28t-81 28t-31 75v3h64z" />
    <glyph glyph-name="Aogonek" unicode="&#x104;" horiz-adv-x="659" 
d="M565 -55q0 -9 5.5 -14.5t13.5 -6.5t11 -1q13 0 33 8v-64q-23 -6 -43 -6q-27 0 -57 13.5t-30 54.5t38 71h-22l-50 125h-278l-50 -125h-118l264 650h85l265 -650h-32q-35 -28 -35 -55zM226 227h198l-99 248z" />
    <glyph glyph-name="aogonek" unicode="&#x105;" 
d="M94 401q62 66 158 66q94 0 145 -67v60h107v-460h-11q-40 -32 -40 -59q0 -9 5.5 -14.5t13.5 -6.5t11 -1q13 0 33 8v-64q-23 -6 -43 -6q-27 0 -57 13.5t-30 54.5q0 45 43 75h-32v59q-52 -67 -145 -67q-96 0 -158.5 67.5t-62.5 170.5q0 104 63 171zM136 230q0 -60 36 -98
q36 -39 95 -39t94.5 38.5t35.5 98.5t-35.5 98t-94.5 38t-95 -38t-36 -98z" />
    <glyph glyph-name="Cacute" unicode="&#x106;" horiz-adv-x="672" 
d="M38 325q0 145 91.5 239t235.5 94q172 0 263 -131l-90 -66q-27 38 -72.5 62t-100.5 24q-96 0 -156 -62.5t-60 -159.5t60 -159.5t156 -62.5q54 0 99.5 25.5t73.5 63.5l90 -69q-91 -131 -263 -131q-144 0 -235.5 94t-91.5 239zM361 820h94l-55 -108h-90z" />
    <glyph glyph-name="cacute" unicode="&#x107;" horiz-adv-x="494" 
d="M97 402q65 66 169 66q122 0 187 -93l-77 -60q-39 51 -107 51q-59 0 -96 -38t-37 -98t37 -98.5t96 -38.5q69 0 107 50l77 -58q-65 -94 -187 -94q-104 0 -169.5 67t-65.5 172t66 172zM271 635h94l-55 -108h-90z" />
    <glyph glyph-name="Cdotaccent" unicode="&#x10a;" horiz-adv-x="672" 
d="M38 325q0 145 91.5 239t235.5 94q172 0 263 -131l-90 -66q-27 38 -72.5 62t-100.5 24q-96 0 -156 -62.5t-60 -159.5t60 -159.5t156 -62.5q54 0 99.5 25.5t73.5 63.5l90 -69q-91 -131 -263 -131q-144 0 -235.5 94t-91.5 239zM321 788q15 13 35 13t36 -13.5t16 -35.5
q0 -23 -16 -37q-16 -15 -36 -15t-35.5 14.5t-15.5 37.5q0 22 16 36z" />
    <glyph glyph-name="cdotaccent" unicode="&#x10b;" horiz-adv-x="494" 
d="M97 402q65 66 169 66q122 0 187 -93l-77 -60q-39 51 -107 51q-59 0 -96 -38t-37 -98t37 -98.5t96 -38.5q69 0 107 50l77 -58q-65 -94 -187 -94q-104 0 -169.5 67t-65.5 172t66 172zM231 603q15 13 35 13t36 -13.5t16 -35.5q0 -23 -16 -37q-16 -15 -36 -15t-35.5 14.5
t-15.5 37.5q0 22 16 36z" />
    <glyph glyph-name="Ccaron" unicode="&#x10c;" horiz-adv-x="672" 
d="M38 325q0 145 91.5 239t235.5 94q172 0 263 -131l-90 -66q-27 38 -72.5 62t-100.5 24q-96 0 -156 -62.5t-60 -159.5t60 -159.5t156 -62.5q54 0 99.5 25.5t73.5 63.5l90 -69q-91 -131 -263 -131q-144 0 -235.5 94t-91.5 239zM316 820l40 -65l40 65h90l-69 -108h-123
l-69 108h91z" />
    <glyph glyph-name="ccaron" unicode="&#x10d;" horiz-adv-x="494" 
d="M97 402q65 66 169 66q122 0 187 -93l-77 -60q-39 51 -107 51q-59 0 -96 -38t-37 -98t37 -98.5t96 -38.5q69 0 107 50l77 -58q-65 -94 -187 -94q-104 0 -169.5 67t-65.5 172t66 172zM226 635l40 -65l40 65h90l-69 -108h-123l-69 108h91z" />
    <glyph glyph-name="Dcaron" unicode="&#x10e;" horiz-adv-x="654" 
d="M281 650q143 0 231.5 -90t88.5 -235t-88.5 -235t-231.5 -90h-233v650h233zM159 108h122q34 0 68.5 11.5t67.5 35t53 67.5t20 103q0 58 -20.5 102.5t-53 68t-67 35t-68.5 11.5h-122v-434zM221 819l40 -65l40 65h90l-69 -108h-123l-69 108h91z" />
    <glyph glyph-name="dcaron" unicode="&#x10f;" 
d="M31 230q0 104 62.5 170.5t158.5 66.5q94 0 145 -67v250h107v-650h-107v59q-52 -67 -145 -67q-96 0 -158.5 67.5t-62.5 170.5zM136 230q0 -60 36 -98q36 -39 95 -39t94.5 38.5t35.5 98.5t-35.5 98t-94.5 38t-95 -38t-36 -98zM319 818h91l40 -65l40 65h90l-69 -108h-123z
" />
    <glyph glyph-name="Dcroat" unicode="&#x110;" horiz-adv-x="658" 
d="M283 650q144 0 233 -90t89 -235t-89 -235t-233 -90h-235v270h-47v102h47v278h235zM284 110q26 0 53.5 6.5t56 23t50.5 40t36 61.5t14 84q0 57 -21 100.5t-53.5 67.5t-67 35.5t-68.5 11.5h-125v-168h109v-102h-109v-160h125z" />
    <glyph glyph-name="Emacron" unicode="&#x112;" horiz-adv-x="544" 
d="M48 650h433v-102h-322v-172h301v-102h-301v-172h322v-102h-433v650zM365 778v-70h-189v70h189z" />
    <glyph glyph-name="emacron" unicode="&#x113;" horiz-adv-x="532" 
d="M94 401q63 67 166 67q100 0 160.5 -67t60.5 -171v-30h-346q8 -54 43.5 -85.5t86.5 -31.5q81 0 120 56l74 -54q-30 -44 -81 -69t-113 -25q-104 0 -169 67.5t-65 171.5t63 171zM381 269q-9 51 -40.5 82.5t-80.5 31.5q-50 0 -82.5 -30.5t-41.5 -83.5h245zM355 594v-70h-189
v70h189z" />
    <glyph glyph-name="Edotaccent" unicode="&#x116;" horiz-adv-x="544" 
d="M48 650h433v-102h-322v-172h301v-102h-301v-172h322v-102h-433v650zM219 750q0 22 15.5 35.5t35.5 13.5t36 -13.5t16 -35.5q0 -23 -16 -37q-16 -15 -36 -15t-35.5 14.5t-15.5 37.5z" />
    <glyph glyph-name="edotaccent" unicode="&#x117;" horiz-adv-x="532" 
d="M94 401q63 67 166 67q100 0 160.5 -67t60.5 -171v-30h-346q8 -54 43.5 -85.5t86.5 -31.5q81 0 120 56l74 -54q-30 -44 -81 -69t-113 -25q-104 0 -169 67.5t-65 171.5t63 171zM381 269q-9 51 -40.5 82.5t-80.5 31.5q-50 0 -82.5 -30.5t-41.5 -83.5h245zM209 567
q0 22 15.5 35.5t35.5 13.5t36 -13.5t16 -35.5q0 -23 -16 -37q-16 -15 -36 -15t-35.5 14.5t-15.5 37.5z" />
    <glyph glyph-name="Eogonek" unicode="&#x118;" horiz-adv-x="544" 
d="M481 650v-102h-322v-172h301v-102h-301v-172h322v-102h-14q-39 -31 -39 -58q0 -9 5.5 -14.5t13.5 -6.5t11 -1q13 0 33 8v-64q-23 -6 -43 -6q-27 0 -57 13.5t-30 54.5q0 42 42 74h-355v650h433z" />
    <glyph glyph-name="eogonek" unicode="&#x119;" horiz-adv-x="532" 
d="M94 401q63 67 166 67q100 0 160.5 -67t60.5 -171v-30h-346q8 -54 43.5 -85.5t86.5 -31.5q81 0 120 56l74 -54q-56 -80 -161 -92q-43 -32 -43 -61q0 -9 5.5 -14.5t13.5 -6.5t11 -1q13 0 33 8v-64q-23 -6 -43 -6q-27 0 -57 13.5t-30 54.5q0 46 46 77q-92 10 -147.5 75.5
t-55.5 161.5q0 104 63 171zM136 269h245q-9 51 -40.5 82.5t-80.5 31.5q-50 0 -82.5 -30.5t-41.5 -83.5z" />
    <glyph glyph-name="Ecaron" unicode="&#x11a;" horiz-adv-x="544" 
d="M48 650h433v-102h-322v-172h301v-102h-301v-172h322v-102h-433v650zM139 818h91l40 -65l40 65h90l-69 -108h-123z" />
    <glyph glyph-name="ecaron" unicode="&#x11b;" horiz-adv-x="532" 
d="M94 401q63 67 166 67q100 0 160.5 -67t60.5 -171v-30h-346q8 -54 43.5 -85.5t86.5 -31.5q81 0 120 56l74 -54q-30 -44 -81 -69t-113 -25q-104 0 -169 67.5t-65 171.5t63 171zM136 269h245q-9 51 -40.5 82.5t-80.5 31.5q-50 0 -82.5 -30.5t-41.5 -83.5zM129 635h91l40 -65
l40 65h90l-69 -108h-123z" />
    <glyph glyph-name="Gbreve" unicode="&#x11e;" horiz-adv-x="734" 
d="M38 325q0 145 91.5 239t235.5 94q85 0 152.5 -34.5t110.5 -95.5l-91 -66q-61 85 -172 85q-96 0 -156 -62.5t-60 -159.5t60 -159.5t156 -62.5q71 0 122.5 41t62.5 113h-192v102h319v-49q-5 -141 -89 -229.5t-223 -88.5q-144 0 -235.5 94t-91.5 239zM254 811h64v-3
q0 -19 13 -32.5t35 -13.5t34.5 13.5t12.5 32.5v3h64v-3q0 -47 -30.5 -75t-80.5 -28t-81 28t-31 75v3z" />
    <glyph glyph-name="gbreve" unicode="&#x11f;" 
d="M93 400q62 67 158 67q92 0 146 -67v60h107v-427q0 -101 -65 -164t-179 -63q-124 0 -194 83l71 59q47 -51 123 -51q52 0 94.5 33t42.5 103v27q-53 -68 -146 -68q-96 0 -158 67.5t-62 170.5t62 170zM172 132q35 -39 94 -39t95 38.5t36 98.5t-36 98t-95 38t-94.5 -38
t-35.5 -98t36 -98zM226 628v-3q0 -19 13 -32.5t35 -13.5t34.5 13.5t12.5 32.5v3h64v-3q0 -47 -30.5 -75t-80.5 -28t-81 28t-31 75v3h64z" />
    <glyph glyph-name="Gdotaccent" unicode="&#x120;" horiz-adv-x="734" 
d="M38 325q0 145 91.5 239t235.5 94q85 0 152.5 -34.5t110.5 -95.5l-91 -66q-61 85 -172 85q-96 0 -156 -62.5t-60 -159.5t60 -159.5t156 -62.5q71 0 122.5 41t62.5 113h-192v102h319v-49q-5 -141 -89 -229.5t-223 -88.5q-144 0 -235.5 94t-91.5 239zM331 786q15 13 35 13
t36 -13.5t16 -35.5q0 -23 -16 -37q-16 -15 -36 -15t-35.5 14.5t-15.5 37.5q0 22 16 36z" />
    <glyph glyph-name="gdotaccent" unicode="&#x121;" 
d="M31 230q0 103 62 170t158 67q92 0 146 -67v60h107v-427q0 -101 -65 -164t-179 -63q-124 0 -194 83l71 59q47 -51 123 -51q52 0 94.5 33t42.5 103v27q-53 -68 -146 -68q-96 0 -158 67.5t-62 170.5zM136 230q0 -60 36 -98q35 -39 94 -39t95 38.5t36 98.5t-36 98t-95 38
t-94.5 -38t-35.5 -98zM239 603q15 13 35 13t36 -13.5t16 -35.5q0 -23 -16 -37q-16 -15 -36 -15t-35.5 14.5t-15.5 37.5q0 22 16 36z" />
    <glyph glyph-name="uni0122" unicode="&#x122;" horiz-adv-x="734" 
d="M38 325q0 145 91.5 239t235.5 94q85 0 152.5 -34.5t110.5 -95.5l-91 -66q-61 85 -172 85q-96 0 -156 -62.5t-60 -159.5t60 -159.5t156 -62.5q71 0 122.5 41t62.5 113h-192v102h319v-49q-5 -141 -89 -229.5t-223 -88.5q-144 0 -235.5 94t-91.5 239zM272 -164l53 106h91
l-57 -106h-87z" />
    <glyph glyph-name="uni0123" unicode="&#x123;" 
d="M31 230q0 103 62 170t158 67q92 0 146 -67v60h107v-427q0 -101 -65 -164t-179 -63q-124 0 -194 83l71 59q47 -51 123 -51q52 0 94.5 33t42.5 103v27q-53 -68 -146 -68q-96 0 -158 67.5t-62 170.5zM172 132q35 -39 94 -39t95 38.5t36 98.5t-36 98t-95 38t-94.5 -38
t-35.5 -98t36 -98zM222 565q0 33 52 81h53q-24 -20 -35 -37q33 -10 33 -44q0 -20 -13.5 -34.5t-36.5 -14.5q-24 0 -38.5 15t-14.5 34z" />
    <glyph glyph-name="Itilde" unicode="&#x128;" horiz-adv-x="226" 
d="M159 650v-650h-111v650h111zM-54 706q1 48 26 79t70 31q43 0 73 -34q23 -25 43 -25q34 0 36 46h64q-1 -49 -26 -79.5t-74 -30.5q-43 0 -74 35q-22 24 -40 24t-26 -14t-8 -32h-64z" />
    <glyph glyph-name="itilde" unicode="&#x129;" horiz-adv-x="231" 
d="M159 460v-460h-108v460h108zM-51 523q1 48 26 79t70 31q43 0 73 -34q23 -25 43 -25q34 0 36 46h64q-1 -49 -26 -79.5t-74 -30.5q-43 0 -74 35q-22 24 -40 24t-26 -14t-8 -32h-64z" />
    <glyph glyph-name="Imacron" unicode="&#x12a;" horiz-adv-x="226" 
d="M8 778h189v-70h-189v70zM159 0h-111v650h111v-650z" />
    <glyph glyph-name="imacron" unicode="&#x12b;" horiz-adv-x="231" 
d="M11 594h189v-70h-189v70zM159 0h-108v460h108v-460z" />
    <glyph glyph-name="Iogonek" unicode="&#x12e;" horiz-adv-x="226" 
d="M82 0h-34v650h111v-650h-13q-42 -29 -42 -60q0 -9 5.5 -14.5t13.5 -6.5t11 -1q13 0 33 8v-64q-23 -6 -43 -6q-27 0 -57 13.5t-30 54.5q0 46 45 76z" />
    <glyph glyph-name="iogonek" unicode="&#x12f;" horiz-adv-x="231" 
d="M85 0h-34v460h108v-460h-10q-43 -32 -43 -61q0 -9 5.5 -14.5t13.5 -6.5t11 -1q13 0 33 8v-64q-23 -6 -43 -6q-27 0 -57 13.5t-30 54.5q0 45 46 77zM70 603q15 13 35 13t36 -13.5t16 -35.5q0 -23 -16 -37q-16 -15 -36 -15t-35.5 14.5t-15.5 37.5q0 22 16 36z" />
    <glyph glyph-name="Idotaccent" unicode="&#x130;" horiz-adv-x="226" 
d="M48 650h111v-650h-111v650zM67 786q15 13 35 13t36 -13.5t16 -35.5q0 -23 -16 -37q-16 -15 -36 -15t-35.5 14.5t-15.5 37.5q0 22 16 36z" />
    <glyph glyph-name="dotlessi" unicode="&#x131;" horiz-adv-x="231" 
d="M159 0h-108v460h108v-460z" />
    <glyph glyph-name="uni0136" unicode="&#x136;" horiz-adv-x="557" 
d="M48 0v650h111v-279l229 279h128l-263 -325l276 -325h-131l-239 280v-280h-111zM230 -55h91l-57 -106h-87z" />
    <glyph glyph-name="uni0137" unicode="&#x137;" horiz-adv-x="496" 
d="M48 650h107v-374l165 184h127l-196 -218l217 -242h-127l-186 207v-207h-107v650zM147 -161l53 106h91l-57 -106h-87z" />
    <glyph glyph-name="Lacute" unicode="&#x139;" horiz-adv-x="527" 
d="M107 818h94l-55 -108h-90zM159 102h320v-102h-431v650h111v-548z" />
    <glyph glyph-name="lacute" unicode="&#x13a;" horiz-adv-x="223" 
d="M107 818h94l-55 -108h-90zM155 0h-107v650h108z" />
    <glyph glyph-name="uni013B" unicode="&#x13b;" horiz-adv-x="527" 
d="M159 102h320v-102h-431v650h111v-548zM222 -55h91l-57 -106h-87z" />
    <glyph glyph-name="uni013C" unicode="&#x13c;" horiz-adv-x="223" 
d="M155 0h-107v650h108zM60 -55h91l-57 -106h-87z" />
    <glyph glyph-name="Lcaron" unicode="&#x13d;" horiz-adv-x="527" 
d="M159 650v-548h320v-102h-431v650h111zM62 818l40 -65l40 65h90l-69 -108h-123l-69 108h91z" />
    <glyph glyph-name="lcaron" unicode="&#x13e;" horiz-adv-x="223" 
d="M48 0v650h108l-1 -650h-107zM62 818l40 -65l40 65h90l-69 -108h-123l-69 108h91z" />
    <glyph glyph-name="Lslash" unicode="&#x141;" horiz-adv-x="526" 
d="M159 102h319v-102h-430v287l-47 -17v105l47 17v258h111v-219l114 41v-105l-114 -41v-224z" />
    <glyph glyph-name="lslash" unicode="&#x142;" horiz-adv-x="223" 
d="M213 419v-88l-58 -20v-311h-107v274l-43 -15v88l43 15v288h107v-251z" />
    <glyph glyph-name="Nacute" unicode="&#x143;" horiz-adv-x="634" 
d="M156 650l299 -457v457h111v-650h-108l-299 457v-457h-111v650h108zM316 818h94l-55 -108h-90z" />
    <glyph glyph-name="nacute" unicode="&#x144;" horiz-adv-x="538" 
d="M48 460h107v-49q48 56 135 56q74 0 127.5 -45t53.5 -140v-282h-108v266q0 57 -31.5 83.5t-73.5 26.5q-41 0 -72 -26.5t-31 -83.5v-266h-107v460zM263 635h94l-55 -108h-90z" />
    <glyph glyph-name="uni0145" unicode="&#x145;" horiz-adv-x="634" 
d="M48 0v650h108l299 -457v457h111v-650h-108l-299 457v-457h-111zM219 -161l53 106h91l-57 -106h-87z" />
    <glyph glyph-name="uni0146" unicode="&#x146;" horiz-adv-x="538" 
d="M48 460h107v-49q48 56 135 56q74 0 127.5 -45t53.5 -140v-282h-108v266q0 57 -31.5 83.5t-73.5 26.5q-41 0 -72 -26.5t-31 -83.5v-266h-107v460zM164 -161l53 106h91l-57 -106h-87z" />
    <glyph glyph-name="Ncaron" unicode="&#x147;" horiz-adv-x="634" 
d="M48 0v650h108l299 -457v457h111v-650h-108l-299 457v-457h-111zM271 818l40 -65l40 65h90l-69 -108h-123l-69 108h91z" />
    <glyph glyph-name="ncaron" unicode="&#x148;" horiz-adv-x="538" 
d="M48 460h107v-49q48 56 135 56q74 0 127.5 -45t53.5 -140v-282h-108v266q0 57 -31.5 83.5t-73.5 26.5q-41 0 -72 -26.5t-31 -83.5v-266h-107v460zM218 635l40 -65l40 65h90l-69 -108h-123l-69 108h91z" />
    <glyph glyph-name="Omacron" unicode="&#x14c;" horiz-adv-x="742" 
d="M38 325q0 145 91.5 239t235.5 94t234.5 -93.5t90.5 -239.5t-90 -239q-91 -94 -235 -94t-235.5 94t-91.5 239zM149 325q0 -97 60 -159q60 -63 156 -63t154.5 62.5t58.5 159.5t-58.5 159.5t-154.5 62.5t-156 -62.5t-60 -159.5zM460 778v-70h-189v70h189z" />
    <glyph glyph-name="omacron" unicode="&#x14d;" horiz-adv-x="555" 
d="M31 230q0 104 66.5 171.5t170.5 67.5t170 -67t66 -172q0 -103 -66 -171t-170 -68t-170.5 68t-66.5 171zM138 230q0 -59 36 -98t94 -39t93.5 39t35.5 98t-35.5 97.5t-93.5 38.5t-94 -38.5t-36 -97.5zM363 594v-70h-189v70h189z" />
    <glyph glyph-name="Ohungarumlaut" unicode="&#x150;" horiz-adv-x="742" 
d="M130 564q91 94 235 94t234.5 -93.5t90.5 -239.5t-90 -239q-91 -94 -235 -94t-235.5 94t-91.5 239t92 239zM209 166q60 -63 156 -63t154.5 62.5t58.5 159.5t-58.5 159.5t-154.5 62.5t-156 -62.5t-60 -159.5t60 -159zM453 818h94l-69 -108h-77zM284 818h94l-69 -108h-77z
" />
    <glyph glyph-name="ohungarumlaut" unicode="&#x151;" horiz-adv-x="555" 
d="M31 230q0 104 66.5 171.5t170.5 67.5t170 -67t66 -172q0 -103 -66 -171t-170 -68t-170.5 68t-66.5 171zM138 230q0 -59 36 -98t94 -39t93.5 39t35.5 98t-35.5 97.5t-93.5 38.5t-94 -38.5t-36 -97.5zM356 635h94l-69 -108h-77zM135 527l52 108h94l-69 -108h-77z" />
    <glyph glyph-name="OE" unicode="&#x152;" horiz-adv-x="1042" 
d="M979 548h-287v-174h266v-102h-266v-170h287v-102h-399v66q-87 -74 -212 -74q-144 0 -237 94t-93 239q0 146 92 239.5t238 93.5q126 0 212 -73v65h399v-102zM368 103q95 0 152.5 62t57.5 160t-57.5 160t-152.5 62q-100 0 -159.5 -62t-59.5 -160t59.5 -160t159.5 -62z" />
    <glyph glyph-name="oe" unicode="&#x153;" horiz-adv-x="889" 
d="M617 468q100 0 160.5 -67t60.5 -171v-30h-346q8 -54 43.5 -85.5t87.5 -31.5q80 0 119 56l75 -48q-31 -47 -81.5 -73.5t-112.5 -26.5q-117 0 -182 83q-66 -82 -179 -82q-102 0 -166.5 67.5t-64.5 170.5t64.5 170t166.5 67q112 0 178 -80q63 81 177 81zM617 383
q-50 0 -82.5 -30.5t-41.5 -83.5h245q-9 51 -40.5 82.5t-80.5 31.5zM262 98q59 0 92 36t33 96t-33 95.5t-92 35.5t-92 -35.5t-33 -95.5t33 -96t92 -36z" />
    <glyph glyph-name="Racute" unicode="&#x154;" horiz-adv-x="610" 
d="M48 650h307q78 0 136 -56.5t58 -152.5q0 -78 -40.5 -131t-102.5 -70l156 -240h-129l-151 233h-123v-233h-111v650zM159 341h179q43 0 71.5 28t28.5 72t-28.5 72.5t-71.5 28.5h-179v-201zM219 710l51 108h94l-55 -108h-90z" />
    <glyph glyph-name="racute" unicode="&#x155;" horiz-adv-x="355" 
d="M48 460h107v-83q53 88 162 90v-101q-25 0 -48.5 -5.5t-51.5 -19t-45 -44t-17 -74.5v-223h-107v460zM193 635h94l-55 -108h-90z" />
    <glyph glyph-name="uni0156" unicode="&#x156;" horiz-adv-x="610" 
d="M48 650h307q78 0 136 -56.5t58 -152.5q0 -78 -40.5 -131t-102.5 -70l156 -240h-129l-151 233h-123v-233h-111v650zM159 341h179q43 0 71.5 28t28.5 72t-28.5 72.5t-71.5 28.5h-179v-201zM183 -161l53 106h91l-57 -106h-87z" />
    <glyph glyph-name="uni0157" unicode="&#x157;" horiz-adv-x="355" 
d="M48 460h107v-83q53 88 162 90v-101q-25 0 -48.5 -5.5t-51.5 -19t-45 -44t-17 -74.5v-223h-107v460zM60 -55h91l-57 -106h-87z" />
    <glyph glyph-name="Rcaron" unicode="&#x158;" horiz-adv-x="610" 
d="M48 650h307q78 0 136 -56.5t58 -152.5q0 -78 -40.5 -131t-102.5 -70l156 -240h-129l-151 233h-123v-233h-111v650zM159 341h179q43 0 71.5 28t28.5 72t-28.5 72.5t-71.5 28.5h-179v-201zM134 818h91l40 -65l40 65h90l-69 -108h-123z" />
    <glyph glyph-name="rcaron" unicode="&#x159;" horiz-adv-x="355" 
d="M48 460h107v-83q53 88 162 90v-101q-25 0 -48.5 -5.5t-51.5 -19t-45 -44t-17 -74.5v-223h-107v460zM148 635l40 -65l40 65h90l-69 -108h-123l-69 108h91z" />
    <glyph glyph-name="Sacute" unicode="&#x15a;" horiz-adv-x="606" 
d="M28 144l90 63q17 -38 73 -72.5t124 -34.5q120 0 120 85q0 18 -11 33t-32.5 25.5t-38.5 17t-45.5 14.5t-35.5 10q-3 1 -29 8t-39.5 12t-40 16t-42.5 24t-33.5 31t-26 42.5t-8.5 53.5q0 95 70.5 142.5t179.5 47.5q89 0 159 -41t90 -96l-89 -56q-15 31 -64 56t-109 25
q-54 0 -82 -19t-28 -54q0 -15 8.5 -27.5t19.5 -21t30.5 -16.5t33 -12t36 -10.5t30.5 -8.5q2 -1 24 -7.5t33 -10.5t35 -14t38.5 -19t33.5 -24t30 -31t19 -38t8 -47q0 -98 -68.5 -150t-187.5 -52q-104 0 -177 45t-98 111zM257 710l51 108h94l-55 -108h-90z" />
    <glyph glyph-name="sacute" unicode="&#x15b;" horiz-adv-x="451" 
d="M21 96l75 49q10 -26 47.5 -49t81.5 -23q80 0 80 55q0 13 -6.5 22.5t-20.5 17t-23.5 11t-30 9.5t-24.5 7l-17 5q-17 5 -24 7.5t-25.5 10t-28 14t-24 17.5t-21.5 22.5t-13 27.5t-6 34q0 67 51 102t130 35q70 0 118.5 -27.5t67.5 -67.5l-71 -45q-11 21 -46 39t-73 18
q-35 0 -54 -13.5t-19 -35.5q0 -12 6 -21.5t20 -16.5t23 -11t29 -9.5t24 -6.5q1 0 13.5 -4t18.5 -6t20 -7t22 -9.5t21.5 -11.5t21.5 -14t17.5 -17t15 -20.5t9.5 -24t4 -27.5q0 -70 -49 -107.5t-137 -37.5q-78 0 -131 31.5t-72 77.5zM227 635h94l-55 -108h-90z" />
    <glyph glyph-name="Scedilla" unicode="&#x15e;" horiz-adv-x="606" 
d="M28 144l90 63q17 -38 73 -72.5t124 -34.5q120 0 120 85q0 18 -11 33t-32.5 25.5t-38.5 17t-45.5 14.5t-35.5 10q-3 1 -29 8t-39.5 12t-40 16t-42.5 24t-33.5 31t-26 42.5t-8.5 53.5q0 95 70.5 142.5t179.5 47.5q89 0 159 -41t90 -96l-89 -56q-15 31 -64 56t-109 25
q-54 0 -82 -19t-28 -54q0 -15 8.5 -27.5t19.5 -21t30.5 -16.5t33 -12t36 -10.5t30.5 -8.5q2 -1 24 -7.5t33 -10.5t35 -14t38.5 -19t33.5 -24t30 -31t19 -38t8 -47q0 -91 -58.5 -142t-162.5 -59l-20 -35q69 -11 69 -66q0 -74 -94 -74q-36 0 -59 10v57q17 -13 59 -13
q38 0 38 20t-42 20q-27 0 -38 -6l-1 46l26 41q-94 6 -159.5 50t-88.5 105z" />
    <glyph glyph-name="scedilla" unicode="&#x15f;" horiz-adv-x="451" 
d="M21 96l75 49q10 -26 47.5 -49t81.5 -23q80 0 80 55q0 13 -6.5 22.5t-20.5 17t-23.5 11t-30 9.5t-24.5 7l-17 5q-17 5 -24 7.5t-25.5 10t-28 14t-24 17.5t-21.5 22.5t-13 27.5t-6 34q0 67 51 102t130 35q70 0 118.5 -27.5t67.5 -67.5l-71 -45q-11 21 -46 39t-73 18
q-35 0 -54 -13.5t-19 -35.5q0 -12 6 -21.5t20 -16.5t23 -11t29 -9.5t24 -6.5q1 0 13.5 -4t18.5 -6t20 -7t22 -9.5t21.5 -11.5t21.5 -14t17.5 -17t15 -20.5t9.5 -24t4 -27.5q0 -64 -41 -101t-116 -43l-17 -30q69 -11 69 -66q0 -74 -94 -74q-36 0 -59 10v57q17 -13 59 -13
q38 0 38 20t-42 20q-27 0 -38 -6l-1 46l23 37q-65 6 -109 36t-61 71z" />
    <glyph glyph-name="Scaron" unicode="&#x160;" horiz-adv-x="606" 
d="M28 144l90 63q17 -38 73 -72.5t124 -34.5q120 0 120 85q0 18 -11 33t-32.5 25.5t-38.5 17t-45.5 14.5t-35.5 10q-3 1 -29 8t-39.5 12t-40 16t-42.5 24t-33.5 31t-26 42.5t-8.5 53.5q0 95 70.5 142.5t179.5 47.5q89 0 159 -41t90 -96l-89 -56q-15 31 -64 56t-109 25
q-54 0 -82 -19t-28 -54q0 -15 8.5 -27.5t19.5 -21t30.5 -16.5t33 -12t36 -10.5t30.5 -8.5q2 -1 24 -7.5t33 -10.5t35 -14t38.5 -19t33.5 -24t30 -31t19 -38t8 -47q0 -98 -68.5 -150t-187.5 -52q-104 0 -177 45t-98 111zM172 818h91l40 -65l40 65h90l-69 -108h-123z" />
    <glyph glyph-name="scaron" unicode="&#x161;" horiz-adv-x="451" 
d="M96 145q10 -26 47.5 -49t81.5 -23q80 0 80 55q0 13 -6.5 22.5t-20.5 17t-23.5 11t-30 9.5t-24.5 7l-17 5q-17 5 -24 7.5t-25.5 10t-28 14t-24 17.5t-21.5 22.5t-13 27.5t-6 34q0 67 51 102t130 35q70 0 118.5 -27.5t67.5 -67.5l-71 -45q-11 21 -46 39t-73 18
q-35 0 -54 -13.5t-19 -35.5q0 -12 6 -21.5t20 -16.5t23 -11t29 -9.5t24 -6.5q1 0 13.5 -4t18.5 -6t20 -7t22 -9.5t21.5 -11.5t21.5 -14t17.5 -17t15 -20.5t9.5 -24t4 -27.5q0 -70 -49 -107.5t-137 -37.5q-78 0 -131 31.5t-72 77.5zM91 635h91l40 -65l40 65h90l-69 -108h-123
z" />
    <glyph glyph-name="uni0162" unicode="&#x162;" horiz-adv-x="588" 
d="M540 650v-102h-200v-548h-25l-21 -37q69 -11 69 -66q0 -74 -94 -74q-36 0 -59 10v57q17 -13 59 -13q38 0 38 20t-42 20q-28 0 -38 -6l-1 46l27 43h-25v548h-200v102h512z" />
    <glyph glyph-name="uni0163" unicode="&#x163;" horiz-adv-x="333" 
d="M18 460h61v141h108v-141h102v-82h-102v-236q0 -35 17 -46.5t45 -11.5h35v-84h-44l-20 -35q69 -11 69 -66q0 -74 -94 -74q-36 0 -59 10v57q17 -13 59 -13q38 0 38 20t-42 20q-27 0 -38 -6l-1 46l27 43q-100 13 -100 123v253h-61v82z" />
    <glyph glyph-name="Tcaron" unicode="&#x164;" horiz-adv-x="588" 
d="M28 650h512v-102h-200v-548h-112v548h-200v102zM153 818h91l40 -65l40 65h90l-69 -108h-123z" />
    <glyph glyph-name="tcaron" unicode="&#x165;" horiz-adv-x="333" 
d="M79 460v141h108v-141h102v-82h-102v-236q0 -35 17 -46.5t45 -11.5h35v-84h-78q-127 0 -127 125v253h-61v82h61zM89 758l40 -65l40 65h90l-69 -108h-123l-69 108h91z" />
    <glyph glyph-name="Tbar" unicode="&#x166;" horiz-adv-x="595" 
d="M540 548h-200v-204h120v-102h-120v-242h-112v242h-121v102h121v204h-200v102h512v-102z" />
    <glyph glyph-name="Utilde" unicode="&#x168;" horiz-adv-x="614" 
d="M48 650h111v-410q0 -69 38 -104.5t100 -35.5t100 35.5t38 104.5v410h112v-422q0 -101 -67 -168.5t-183 -67.5t-182.5 67.5t-66.5 168.5v422zM145 706q1 48 26 79t70 31q43 0 73 -34q23 -25 43 -25q34 0 36 46h64q-1 -49 -26 -79.5t-74 -30.5q-43 0 -74 35q-22 24 -40 24
t-26 -14t-8 -32h-64z" />
    <glyph glyph-name="utilde" unicode="&#x169;" horiz-adv-x="538" 
d="M48 178v282h107v-266q0 -57 32 -83.5t73 -26.5t72 26.5t31 83.5v266h108v-460h-108v48q-48 -56 -135 -56q-74 0 -127 45.5t-53 140.5zM108 523q1 48 26 79t70 31q43 0 73 -34q23 -25 43 -25q34 0 36 46h64q-1 -49 -26 -79.5t-74 -30.5q-43 0 -74 35q-22 24 -40 24
t-26 -14t-8 -32h-64z" />
    <glyph glyph-name="Umacron" unicode="&#x16a;" horiz-adv-x="614" 
d="M48 228v422h111v-410q0 -69 38 -104.5t100 -35.5t100 35.5t38 104.5v410h112v-422q0 -101 -67 -168.5t-183 -67.5t-182.5 67.5t-66.5 168.5zM207 708v70h189v-70h-189z" />
    <glyph glyph-name="umacron" unicode="&#x16b;" horiz-adv-x="538" 
d="M48 460h107v-266q0 -57 32 -83.5t73 -26.5t72 26.5t31 83.5v266h108v-460h-108v48q-48 -56 -135 -56q-74 0 -127 45.5t-53 140.5v282zM170 594h189v-70h-189v70z" />
    <glyph glyph-name="Uring" unicode="&#x16e;" horiz-adv-x="614" 
d="M48 228v422h111v-410q0 -69 38 -104.5t100 -35.5t100 35.5t38 104.5v410h112v-422q0 -101 -67 -168.5t-183 -67.5t-182.5 67.5t-66.5 168.5zM236 844q25 24 65 24t65 -24t25 -63q0 -37 -25.5 -61.5t-64.5 -24.5q-40 0 -65.5 24.5t-25.5 61.5q0 39 26 63zM264 781
q0 -14 9 -25q8 -12 28 -12t28.5 11.5t8.5 25.5t-8.5 26t-28.5 12t-28.5 -12t-8.5 -26z" />
    <glyph glyph-name="uring" unicode="&#x16f;" horiz-adv-x="538" 
d="M155 460v-266q0 -57 32 -83.5t73 -26.5t72 26.5t31 83.5v266h108v-460h-108v48q-48 -56 -135 -56q-74 0 -127 45.5t-53 140.5v282h107zM173 598q0 39 25.5 63t65.5 24t65 -24t25 -63q0 -37 -25.5 -61.5t-64.5 -24.5q-40 0 -65.5 24.5t-25.5 61.5zM236 573q8 -12 28 -12
t28.5 11.5t8.5 25.5t-8.5 26t-28.5 12t-28.5 -12t-8.5 -26t9 -25z" />
    <glyph glyph-name="Uhungarumlaut" unicode="&#x170;" horiz-adv-x="614" 
d="M48 228v422h111v-410q0 -69 38 -104.5t100 -35.5t100 35.5t38 104.5v410h112v-422q0 -101 -67 -168.5t-183 -67.5t-182.5 67.5t-66.5 168.5zM389 818h94l-69 -108h-77zM220 818h94l-69 -108h-77z" />
    <glyph glyph-name="uhungarumlaut" unicode="&#x171;" horiz-adv-x="538" 
d="M155 460v-266q0 -57 32 -83.5t73 -26.5t72 26.5t31 83.5v266h108v-460h-108v48q-48 -56 -135 -56q-74 0 -127 45.5t-53 140.5v282h107zM352 635h94l-69 -108h-77zM131 527l52 108h94l-69 -108h-77z" />
    <glyph glyph-name="Uogonek" unicode="&#x172;" horiz-adv-x="614" 
d="M48 650h111v-410q0 -69 38 -104.5t100 -35.5t100 35.5t38 104.5v410h112v-422q0 -93 -58 -159t-160 -76q-37 -27 -37 -56q0 -9 5.5 -14.5t13.5 -6.5t11 -1q13 0 33 8v-64q-23 -6 -43 -6q-27 0 -57 13.5t-30 54.5q0 43 40 72q-102 10 -159.5 76t-57.5 159v422z" />
    <glyph glyph-name="uogonek" unicode="&#x173;" horiz-adv-x="538" 
d="M155 460v-266q0 -57 32 -83.5t73 -26.5t72 26.5t31 83.5v266h108v-460h-17q-36 -29 -36 -56q0 -9 5.5 -14.5t13.5 -6.5t11 -1q13 0 33 8v-64q-23 -6 -43 -6q-27 0 -57 13.5t-30 54.5t39 72h-27v48q-48 -56 -135 -56q-74 0 -127 45.5t-53 140.5v282h107z" />
    <glyph glyph-name="Wcircumflex" unicode="&#x174;" horiz-adv-x="949" 
d="M18 650h118l148 -447l147 447h82l145 -433l145 433h118l-217 -650h-95l-140 420l-139 -420h-95zM407 818h123l69 -108h-90l-40 69l-40 -69h-91z" />
    <glyph glyph-name="wcircumflex" unicode="&#x175;" horiz-adv-x="749" 
d="M10 460h111l98 -308l107 308h80l106 -308l98 308h112l-152 -460h-105l-100 294l-101 -294h-105zM303 635h123l69 -108h-90l-40 69l-40 -69h-91z" />
    <glyph glyph-name="Ycircumflex" unicode="&#x176;" horiz-adv-x="612" 
d="M11 650h128l159 -255l159 255h128l-231 -370v-280h-111v277zM167 710l69 108h123l69 -108h-90l-40 69l-40 -69h-91z" />
    <glyph glyph-name="ycircumflex" unicode="&#x177;" horiz-adv-x="505" 
d="M9 460h111l122 -311l124 311h112l-256 -644h-105l73 184zM111 527l69 108h123l69 -108h-90l-40 69l-40 -69h-91z" />
    <glyph glyph-name="Ydieresis" unicode="&#x178;" horiz-adv-x="612" 
d="M11 650h128l159 -255l159 255h128l-231 -370v-280h-111v277zM170 786q15 13 35 13t36 -13.5t16 -35.5q0 -23 -16 -37q-16 -15 -36 -15t-35.5 14.5t-15.5 37.5q0 22 16 36zM340 750q0 22 15.5 35.5t35.5 13.5t35.5 -13.5t15.5 -35.5q0 -24 -15 -38q-16 -14 -36 -14
t-35.5 14t-15.5 38z" />
    <glyph glyph-name="Zacute" unicode="&#x179;" horiz-adv-x="541" 
d="M276 818h94l-55 -108h-90zM494 556l-321 -453l314 -1v-102h-449v94l317 453h-311v103h450v-94z" />
    <glyph glyph-name="zacute" unicode="&#x17a;" horiz-adv-x="426" 
d="M208 635h94l-55 -108h-90zM378 460v-81l-215 -290h213v-89h-348v81l215 290h-213v89h348z" />
    <glyph glyph-name="Zdotaccent" unicode="&#x17b;" horiz-adv-x="541" 
d="M38 94l317 453h-311v103h450v-94l-321 -453l314 -1v-102h-449v94zM220 750q0 22 15.5 35.5t35.5 13.5t36 -13.5t16 -35.5q0 -23 -16 -37q-16 -15 -36 -15t-35.5 14.5t-15.5 37.5z" />
    <glyph glyph-name="zdotaccent" unicode="&#x17c;" horiz-adv-x="426" 
d="M28 0v81l215 290h-213v89h348v-81l-215 -290h213v-89h-348zM168 603q15 13 35 13t36 -13.5t16 -35.5q0 -23 -16 -37q-16 -15 -36 -15t-35.5 14.5t-15.5 37.5q0 22 16 36z" />
    <glyph glyph-name="Zcaron" unicode="&#x17d;" horiz-adv-x="541" 
d="M38 94l317 453h-311v103h450v-94l-321 -453l314 -1v-102h-449v94zM140 818h91l40 -65l40 65h90l-69 -108h-123z" />
    <glyph glyph-name="zcaron" unicode="&#x17e;" horiz-adv-x="426" 
d="M28 81l215 290h-213v89h348v-81l-215 -290h213v-89h-348v81zM163 635l40 -65l40 65h90l-69 -108h-123l-69 108h91z" />
    <glyph glyph-name="uni01CD" unicode="&#x1cd;" horiz-adv-x="659" 
d="M18 0l264 650h85l265 -650h-118l-50 125h-278l-50 -125h-118zM226 227h198l-99 248zM286 818l40 -65l40 65h90l-69 -108h-123l-69 108h91z" />
    <glyph glyph-name="uni01CE" unicode="&#x1ce;" 
d="M31 230q0 104 62.5 170.5t158.5 66.5q94 0 145 -67v60h107v-460h-107v59q-52 -67 -145 -67q-96 0 -158.5 67.5t-62.5 170.5zM136 230q0 -60 36 -98q36 -39 95 -39t94.5 38.5t35.5 98.5t-35.5 98t-94.5 38t-95 -38t-36 -98zM254 635l40 -65l40 65h90l-69 -108h-123
l-69 108h91z" />
    <glyph glyph-name="uni01CF" unicode="&#x1cf;" horiz-adv-x="226" 
d="M48 0v650h111v-650h-111zM62 818l40 -65l40 65h90l-69 -108h-123l-69 108h91z" />
    <glyph glyph-name="uni01D0" unicode="&#x1d0;" horiz-adv-x="231" 
d="M51 0v460h108v-460h-108zM65 635l40 -65l40 65h90l-69 -108h-123l-69 108h91z" />
    <glyph glyph-name="uni01D1" unicode="&#x1d1;" horiz-adv-x="742" 
d="M38 325q0 145 91.5 239t235.5 94t234.5 -93.5t90.5 -239.5t-90 -239q-91 -94 -235 -94t-235.5 94t-91.5 239zM209 166q60 -63 156 -63t154.5 62.5t58.5 159.5t-58.5 159.5t-154.5 62.5t-156 -62.5t-60 -159.5t60 -159zM234 818h91l40 -65l40 65h90l-69 -108h-123z" />
    <glyph glyph-name="uni01D2" unicode="&#x1d2;" horiz-adv-x="555" 
d="M31 230q0 104 66.5 171.5t170.5 67.5t170 -67t66 -172q0 -103 -66 -171t-170 -68t-170.5 68t-66.5 171zM174 132q36 -39 94 -39t93.5 39t35.5 98t-35.5 97.5t-93.5 38.5t-94 -38.5t-36 -97.5t36 -98zM137 635h91l40 -65l40 65h90l-69 -108h-123z" />
    <glyph glyph-name="uni01D3" unicode="&#x1d3;" horiz-adv-x="614" 
d="M159 650v-410q0 -69 38 -104.5t100 -35.5t100 35.5t38 104.5v410h112v-422q0 -101 -67 -168.5t-183 -67.5t-182.5 67.5t-66.5 168.5v422h111zM170 818h91l40 -65l40 65h90l-69 -108h-123z" />
    <glyph glyph-name="uni01D4" unicode="&#x1d4;" horiz-adv-x="538" 
d="M155 460v-266q0 -57 32 -83.5t73 -26.5t72 26.5t31 83.5v266h108v-460h-108v48q-48 -56 -135 -56q-74 0 -127 45.5t-53 140.5v282h107zM133 635h91l40 -65l40 65h90l-69 -108h-123z" />
    <glyph glyph-name="Gcaron" unicode="&#x1e6;" horiz-adv-x="734" 
d="M38 325q0 145 91.5 239t235.5 94q85 0 152.5 -34.5t110.5 -95.5l-91 -66q-61 85 -172 85q-96 0 -156 -62.5t-60 -159.5t60 -159.5t156 -62.5q71 0 122.5 41t62.5 113h-192v102h319v-49q-5 -141 -89 -229.5t-223 -88.5q-144 0 -235.5 94t-91.5 239zM326 818l40 -65l40 65
h90l-69 -108h-123l-69 108h91z" />
    <glyph glyph-name="gcaron" unicode="&#x1e7;" 
d="M93 400q62 67 158 67q92 0 146 -67v60h107v-427q0 -101 -65 -164t-179 -63q-124 0 -194 83l71 59q47 -51 123 -51q52 0 94.5 33t42.5 103v27q-53 -68 -146 -68q-96 0 -158 67.5t-62 170.5t62 170zM136 230q0 -60 36 -98q35 -39 94 -39t95 38.5t36 98.5t-36 98t-95 38
t-94.5 -38t-35.5 -98zM234 635l40 -65l40 65h90l-69 -108h-123l-69 108h91z" />
    <glyph glyph-name="uni0218" unicode="&#x218;" horiz-adv-x="606" 
d="M28 144l90 63q17 -38 73 -72.5t124 -34.5q120 0 120 85q0 18 -11 33t-32.5 25.5t-38.5 17t-45.5 14.5t-35.5 10q-3 1 -29 8t-39.5 12t-40 16t-42.5 24t-33.5 31t-26 42.5t-8.5 53.5q0 95 70.5 142.5t179.5 47.5q89 0 159 -41t90 -96l-89 -56q-15 31 -64 56t-109 25
q-54 0 -82 -19t-28 -54q0 -15 8.5 -27.5t19.5 -21t30.5 -16.5t33 -12t36 -10.5t30.5 -8.5q2 -1 24 -7.5t33 -10.5t35 -14t38.5 -19t33.5 -24t30 -31t19 -38t8 -47q0 -98 -68.5 -150t-187.5 -52q-104 0 -177 45t-98 111zM213 -169l53 106h91l-57 -106h-87z" />
    <glyph glyph-name="uni0219" unicode="&#x219;" horiz-adv-x="451" 
d="M21 96l75 49q10 -26 47.5 -49t81.5 -23q80 0 80 55q0 13 -6.5 22.5t-20.5 17t-23.5 11t-30 9.5t-24.5 7l-17 5q-17 5 -24 7.5t-25.5 10t-28 14t-24 17.5t-21.5 22.5t-13 27.5t-6 34q0 67 51 102t130 35q70 0 118.5 -27.5t67.5 -67.5l-71 -45q-11 21 -46 39t-73 18
q-35 0 -54 -13.5t-19 -35.5q0 -12 6 -21.5t20 -16.5t23 -11t29 -9.5t24 -6.5q1 0 13.5 -4t18.5 -6t20 -7t22 -9.5t21.5 -11.5t21.5 -14t17.5 -17t15 -20.5t9.5 -24t4 -27.5q0 -70 -49 -107.5t-137 -37.5q-78 0 -131 31.5t-72 77.5zM131 -165l53 106h91l-57 -106h-87z" />
    <glyph glyph-name="uni021A" unicode="&#x21a;" horiz-adv-x="588" 
d="M540 650v-102h-200v-548h-112v548h-200v102h512zM189 -160l53 106h91l-57 -106h-87z" />
    <glyph glyph-name="uni021B" unicode="&#x21b;" horiz-adv-x="333" 
d="M18 460h61v141h108v-141h102v-82h-102v-236q0 -35 17 -46.5t45 -11.5h35v-84h-78q-127 0 -127 125v253h-61v82zM115 -158l53 106h91l-57 -106h-87z" />
    <glyph glyph-name="circumflex" unicode="&#x2c6;" horiz-adv-x="301" 
d="M281 542h-90l-40 69l-40 -69h-91l69 108h123z" />
    <glyph glyph-name="caron" unicode="&#x2c7;" horiz-adv-x="301" 
d="M191 650h90l-69 -108h-123l-69 108h91l40 -65z" />
    <glyph glyph-name="breve" unicode="&#x2d8;" horiz-adv-x="251" 
d="M231 650v-3q0 -49 -29.5 -75.5t-75.5 -26.5q-47 0 -76.5 26.5t-29.5 75.5v3h64v-3q0 -20 11 -32.5t31 -12.5t30.5 12.5t10.5 32.5v3h64z" />
    <glyph glyph-name="dotaccent" unicode="&#x2d9;" horiz-adv-x="143" 
d="M71 581q-20 0 -35.5 14.5t-15.5 37.5q0 22 15.5 35.5t35.5 13.5t36 -13.5t16 -35.5q0 -23 -16 -37.5t-36 -14.5z" />
    <glyph glyph-name="ring" unicode="&#x2da;" horiz-adv-x="221" 
d="M113 495q-40 0 -66.5 25.5t-26.5 63.5q0 40 26 64.5t67 24.5t66.5 -24.5t25.5 -64.5q0 -38 -25.5 -63.5t-66.5 -25.5zM113 545q20 0 30 12t10 27t-10 27.5t-30 12.5q-21 0 -30 -12.5t-9 -27.5q0 -39 39 -39z" />
    <glyph glyph-name="ogonek" unicode="&#x2db;" horiz-adv-x="165" 
d="M145 -145q-52 -13 -88.5 4t-36.5 58q0 28 16.5 50.5t36.5 32.5h58q-1 0 -5.5 -3.5t-8 -6.5t-9.5 -8t-10 -10t-8 -11.5t-6 -13.5t-2 -14q0 -9 5.5 -14.5t19.5 -7.5t38 8v-64z" />
    <glyph glyph-name="tilde" unicode="&#x2dc;" horiz-adv-x="352" 
d="M20 575q1 48 26 79t70 31q43 0 73 -34q23 -25 43 -25q34 0 36 46h64q-1 -49 -26 -79.5t-74 -30.5q-43 0 -74 35q-22 24 -40 24t-26 -14t-8 -32h-64z" />
    <glyph glyph-name="hungarumlaut" unicode="&#x2dd;" horiz-adv-x="355" 
d="M72 650h94l-69 -108h-77zM241 650h94l-69 -108h-77z" />
    <glyph glyph-name="gravecomb" unicode="&#x300;" horiz-adv-x="0" 
d="M-71 650l51 -108h-90l-55 108h94z" />
    <glyph glyph-name="acutecomb" unicode="&#x301;" horiz-adv-x="0" 
d="M-114 650h94l-55 -108h-90z" />
    <glyph glyph-name="uni0302" unicode="&#x302;" horiz-adv-x="0" 
d="M-212 650h123l69 -108h-90l-40 69l-40 -69h-91z" />
    <glyph glyph-name="tildecomb" unicode="&#x303;" horiz-adv-x="0" 
d="M-332 575q1 48 26 79t70 31q43 0 73 -34q23 -25 43 -25q34 0 36 46h64q-1 -49 -26 -79.5t-74 -30.5q-43 0 -74 35q-22 24 -40 24t-26 -14t-8 -32h-64z" />
    <glyph glyph-name="uni0304" unicode="&#x304;" horiz-adv-x="0" 
d="M-209 650h189v-70h-189v70z" />
    <glyph glyph-name="uni0306" unicode="&#x306;" horiz-adv-x="0" 
d="M-243 650h64v-3q0 -19 13 -32.5t35 -13.5t34.5 13.5t12.5 32.5v3h64v-3q0 -47 -30.5 -75t-80.5 -28t-81 28t-31 75v3z" />
    <glyph glyph-name="uni0307" unicode="&#x307;" horiz-adv-x="0" 
d="M-123 633q0 22 15.5 35.5t35.5 13.5t36 -13.5t16 -35.5q0 -23 -16 -37q-16 -15 -36 -15t-35.5 14.5t-15.5 37.5z" />
    <glyph glyph-name="uni0308" unicode="&#x308;" horiz-adv-x="0" 
d="M-314 633q0 22 15.5 35.5t35.5 13.5t36 -13.5t16 -35.5q0 -23 -16 -37q-16 -15 -36 -15t-35.5 14.5t-15.5 37.5zM-128 633q0 22 15.5 35.5t35.5 13.5t35.5 -13.5t15.5 -35.5q0 -24 -16 -38q-15 -14 -35 -14t-35.5 14t-15.5 38z" />
    <glyph glyph-name="uni030A" unicode="&#x30a;" horiz-adv-x="0" 
d="M-176 649q26 24 66 24t65 -24t25 -63q0 -37 -25.5 -61.5t-64.5 -24.5q-40 0 -65.5 24.5t-25.5 61.5q0 39 25 63zM-147 586q0 -14 8 -25q9 -12 29 -12t28.5 11.5t8.5 25.5t-8.5 26t-28.5 12t-28.5 -12t-8.5 -26z" />
    <glyph glyph-name="uni030B" unicode="&#x30b;" horiz-adv-x="0" 
d="M-166 542l52 108h94l-69 -108h-77zM-335 542l52 108h94l-69 -108h-77z" />
    <glyph glyph-name="uni030C" unicode="&#x30c;" horiz-adv-x="0" 
d="M-190 650l40 -65l40 65h90l-69 -108h-123l-69 108h91z" />
    <glyph glyph-name="uni0312" unicode="&#x312;" horiz-adv-x="0" 
d="M-126 607q0 33 52 81h53q-24 -20 -35 -37q33 -10 33 -44q0 -20 -13.5 -34.5t-36.5 -14.5q-24 0 -38.5 15t-14.5 34z" />
    <glyph glyph-name="dotbelowcomb" unicode="&#x323;" horiz-adv-x="0" 
d="M-123 -49q0 22 15.5 35.5t35.5 13.5t36 -13.5t16 -35.5q0 -23 -16 -38q-16 -14 -36 -14t-35.5 14.5t-15.5 37.5z" />
    <glyph glyph-name="uni0326" unicode="&#x326;" horiz-adv-x="0" 
d="M-111 0h91l-57 -106h-87z" />
    <glyph glyph-name="uni0327" unicode="&#x327;" horiz-adv-x="0" 
d="M-114 -128q38 0 38 20t-42 20q-28 0 -38 -6l-1 46l30 48h62l-24 -42q69 -11 69 -66q0 -74 -94 -74q-36 0 -59 10v57q17 -13 59 -13z" />
    <glyph glyph-name="uni0328" unicode="&#x328;" horiz-adv-x="0" 
d="M-132 -33q18 22 38 33h62q-1 -1 -8 -6t-13.5 -10.5t-13.5 -13.5t-11.5 -17.5t-4.5 -19.5q0 -9 5.5 -14.5t13.5 -6.5t11 -1q13 0 33 8v-64q-23 -6 -43 -6q-27 0 -57 13.5t-30 54.5q0 28 18 50z" />
    <glyph glyph-name="uni0331" unicode="&#x331;" horiz-adv-x="0" 
d="M-201 0h181v-69h-181v69z" />
    <glyph glyph-name="Gamma" unicode="&#x393;" horiz-adv-x="466" 
d="M399 650v-102h-243v-548h-108v650h351z" />
    <glyph glyph-name="uni0394" unicode="&#x394;" horiz-adv-x="655" 
d="M363 650l224 -554v-96h-539v96l224 554h91zM163 96h308l-155 387z" />
    <glyph glyph-name="Sigma" unicode="&#x3a3;" horiz-adv-x="590" 
d="M522 650v-102h-297l223 -226l-221 -220h295v-102h-474v80l253 242l-253 251v77h474z" />
    <glyph glyph-name="Phi" unicode="&#x3a6;" horiz-adv-x="774" 
d="M707 326q0 -118 -76 -184.5t-209 -75.5v-71h-89v71q-132 9 -208.5 76t-76.5 184q0 116 76.5 183t208.5 76v70h89v-70q132 -9 208.5 -75.5t76.5 -183.5zM156 326q0 -63 43 -103.5t134 -48.5v302q-91 -8 -134 -48t-43 -102zM422 174q91 8 133.5 48.5t42.5 103.5
q0 62 -42.5 102t-133.5 48v-302z" />
    <glyph glyph-name="Psi" unicode="&#x3a8;" horiz-adv-x="726" 
d="M550 650h108v-197q0 -132 -71.5 -204.5t-188.5 -84.5v-164h-90v164q-117 12 -188.5 84.5t-71.5 205.5v196h108v-196q0 -170 152 -187v383h90v-383q152 17 152 187v196z" />
    <glyph glyph-name="uni03A9" unicode="&#x3a9;" horiz-adv-x="786" 
d="M618 106h101v-102h-277v103q82 32 119 93.5t37 131.5q0 39 -13 76t-37.5 69.5t-67 52.5t-96.5 20q-104 0 -160 -67t-56 -151q0 -69 36.5 -130.5t118.5 -92.5v-105h-275v102h101q-89 91 -89 219q0 146 90 239.5t234 93.5t233 -93.5t89 -239.5q0 -128 -88 -219z" />
    <glyph glyph-name="uni1E04" unicode="&#x1e04;" horiz-adv-x="604" 
d="M48 0v650h301q79 0 133 -48.5t54 -131.5q0 -90 -66 -133q90 -46 90 -151q0 -83 -57 -134.5t-135 -51.5h-320zM351 102q43 0 68.5 26.5t25.5 66.5q0 39 -26 65.5t-68 26.5h-192v-185h192zM159 380h172q41 0 65.5 23t24.5 61q0 39 -24.5 61.5t-65.5 22.5h-172v-168z
M216 -96q0 22 15.5 35.5t35.5 13.5t36 -13.5t16 -35.5q0 -23 -16 -38q-16 -14 -36 -14t-35.5 14.5t-15.5 37.5z" />
    <glyph glyph-name="uni1E05" unicode="&#x1e05;" 
d="M48 650h107v-250q51 67 145 67q96 0 158 -66.5t62 -170.5q0 -103 -62 -170.5t-158 -67.5q-93 0 -145 67v-59h-107v650zM155 230q0 -60 36 -98q35 -39 94 -39t95 38.5t36 98.5t-36 98t-95 38t-94.5 -38t-35.5 -98zM242 -104q0 22 15.5 35.5t35.5 13.5t36 -13.5t16 -35.5
q0 -23 -16 -38q-16 -14 -36 -14t-35.5 14.5t-15.5 37.5z" />
    <glyph glyph-name="uni1E0C" unicode="&#x1e0c;" horiz-adv-x="654" 
d="M48 650h233q143 0 231.5 -90t88.5 -235t-88.5 -235t-231.5 -90h-233v650zM281 108q34 0 68.5 11.5t67.5 35t53 67.5t20 103q0 58 -20.5 102.5t-53 68t-67 35t-68.5 11.5h-122v-434h122zM225 -61q15 14 35 14t36 -13.5t16 -35.5q0 -23 -16 -38q-16 -14 -36 -14t-35.5 14.5
t-15.5 37.5q0 22 16 35z" />
    <glyph glyph-name="uni1E0D" unicode="&#x1e0d;" 
d="M31 230q0 104 62.5 170.5t158.5 66.5q94 0 145 -67v250h107v-650h-107v59q-52 -67 -145 -67q-96 0 -158.5 67.5t-62.5 170.5zM172 132q36 -39 95 -39t94.5 38.5t35.5 98.5t-35.5 98t-94.5 38t-95 -38t-36 -98t36 -98zM240 -69q15 14 35 14t36 -13.5t16 -35.5
q0 -23 -16 -38q-16 -14 -36 -14t-35.5 14.5t-15.5 37.5q0 22 16 35z" />
    <glyph glyph-name="uni1E24" unicode="&#x1e24;" horiz-adv-x="640" 
d="M159 650v-271h302v271h111v-650h-111v271h-302v-271h-111v650h111zM257 -93q0 22 15.5 35.5t35.5 13.5t36 -13.5t16 -35.5q0 -23 -16 -38q-16 -14 -36 -14t-35.5 14.5t-15.5 37.5z" />
    <glyph glyph-name="uni1E25" unicode="&#x1e25;" horiz-adv-x="538" 
d="M48 650h107v-239q48 56 135 56q74 0 127.5 -45t53.5 -140v-282h-108v266q0 57 -31.5 83.5t-73.5 26.5q-41 0 -72 -26.5t-31 -83.5v-266h-107v650zM227 -61q15 14 35 14t36 -13.5t16 -35.5q0 -23 -16 -38q-16 -14 -36 -14t-35.5 14.5t-15.5 37.5q0 22 16 35z" />
    <glyph glyph-name="uni1E36" unicode="&#x1e36;" horiz-adv-x="527" 
d="M48 0v650h111v-548h320v-102h-431zM212 -96q0 22 15.5 35.5t35.5 13.5t36 -13.5t16 -35.5q0 -23 -16 -38q-16 -14 -36 -14t-35.5 14.5t-15.5 37.5z" />
    <glyph glyph-name="uni1E37" unicode="&#x1e37;" horiz-adv-x="223" 
d="M48 650h108l-1 -650h-107v650zM66 -61q15 14 35 14t36 -13.5t16 -35.5q0 -23 -16 -38q-16 -14 -36 -14t-35.5 14.5t-15.5 37.5q0 22 16 35z" />
    <glyph glyph-name="uni1E3E" unicode="&#x1e3e;" horiz-adv-x="754" 
d="M48 0v650h114l205 -409l206 409h114v-650h-112v427l-169 -351h-77l-170 352v-428h-111zM373 818h94l-55 -108h-90z" />
    <glyph glyph-name="uni1E3F" unicode="&#x1e3f;" horiz-adv-x="819" 
d="M48 460h107v-50q48 57 127 57q101 0 145 -75q50 75 153 75q72 0 122 -44t50 -141v-282h-108v268q0 56 -29.5 80.5t-66.5 24.5t-66 -24.5t-29 -80.5v-268h-107v268q0 56 -29.5 80.5t-66.5 24.5t-66 -24.5t-29 -80.5v-268h-107v460zM354 536l51 108h94l-55 -108h-90z" />
    <glyph glyph-name="uni1E44" unicode="&#x1e44;" horiz-adv-x="634" 
d="M48 0v650h108l299 -457v457h111v-650h-108l-299 457v-457h-111zM260 750q0 22 15.5 35.5t35.5 13.5t36 -13.5t16 -35.5q0 -23 -16 -37q-16 -15 -36 -15t-35.5 14.5t-15.5 37.5z" />
    <glyph glyph-name="uni1E45" unicode="&#x1e45;" horiz-adv-x="538" 
d="M48 460h107v-49q48 56 135 56q74 0 127.5 -45t53.5 -140v-282h-108v266q0 57 -31.5 83.5t-73.5 26.5q-41 0 -72 -26.5t-31 -83.5v-266h-107v460zM207 567q0 22 15.5 35.5t35.5 13.5t36 -13.5t16 -35.5q0 -23 -16 -37q-16 -15 -36 -15t-35.5 14.5t-15.5 37.5z" />
    <glyph glyph-name="uni1E46" unicode="&#x1e46;" horiz-adv-x="634" 
d="M48 0v650h108l299 -457v457h111v-650h-108l-299 457v-457h-111zM262 -96q0 22 15.5 35.5t35.5 13.5t36 -13.5t16 -35.5q0 -23 -16 -38q-16 -14 -36 -14t-35.5 14.5t-15.5 37.5z" />
    <glyph glyph-name="uni1E47" unicode="&#x1e47;" horiz-adv-x="538" 
d="M48 460h107v-49q48 56 135 56q74 0 127.5 -45t53.5 -140v-282h-108v266q0 57 -31.5 83.5t-73.5 26.5q-41 0 -72 -26.5t-31 -83.5v-266h-107v460zM223 -61q15 14 35 14t36 -13.5t16 -35.5q0 -23 -16 -38q-16 -14 -36 -14t-35.5 14.5t-15.5 37.5q0 22 16 35z" />
    <glyph glyph-name="uni1E62" unicode="&#x1e62;" horiz-adv-x="606" 
d="M28 144l90 63q17 -38 73 -72.5t124 -34.5q120 0 120 85q0 18 -11 33t-32.5 25.5t-38.5 17t-45.5 14.5t-35.5 10q-3 1 -29 8t-39.5 12t-40 16t-42.5 24t-33.5 31t-26 42.5t-8.5 53.5q0 95 70.5 142.5t179.5 47.5q89 0 159 -41t90 -96l-89 -56q-15 31 -64 56t-109 25
q-54 0 -82 -19t-28 -54q0 -15 8.5 -27.5t19.5 -21t30.5 -16.5t33 -12t36 -10.5t30.5 -8.5q2 -1 24 -7.5t33 -10.5t35 -14t38.5 -19t33.5 -24t30 -31t19 -38t8 -47q0 -98 -68.5 -150t-187.5 -52q-104 0 -177 45t-98 111zM272 -69q15 14 35 14t36 -13.5t16 -35.5
q0 -23 -16 -38q-16 -14 -36 -14t-35.5 14.5t-15.5 37.5q0 22 16 35z" />
    <glyph glyph-name="uni1E6C" unicode="&#x1e6c;" horiz-adv-x="588" 
d="M28 650h512v-102h-200v-548h-112v548h-200v102zM232 -95q0 22 15.5 35.5t35.5 13.5t36 -13.5t16 -35.5q0 -23 -16 -38q-16 -14 -36 -14t-35.5 14.5t-15.5 37.5z" />
    <glyph glyph-name="uni1E6D" unicode="&#x1e6d;" horiz-adv-x="333" 
d="M18 460h61v141h108v-141h102v-82h-102v-236q0 -35 17 -46.5t45 -11.5h35v-84h-78q-127 0 -127 125v253h-61v82zM174 -58q15 14 35 14t36 -13.5t16 -35.5q0 -23 -16 -38q-16 -14 -36 -14t-35.5 14.5t-15.5 37.5q0 22 16 35z" />
    <glyph glyph-name="Wgrave" unicode="&#x1e80;" horiz-adv-x="949" 
d="M18 650h118l148 -447l147 447h82l145 -433l145 433h118l-217 -650h-95l-140 420l-139 -420h-95zM465 818l51 -108h-90l-55 108h94z" />
    <glyph glyph-name="wgrave" unicode="&#x1e81;" horiz-adv-x="749" 
d="M10 460h111l98 -308l107 308h80l106 -308l98 308h112l-152 -460h-105l-100 294l-101 -294h-105zM361 635l51 -108h-90l-55 108h94z" />
    <glyph glyph-name="Wacute" unicode="&#x1e82;" horiz-adv-x="949" 
d="M18 650h118l148 -447l147 447h82l145 -433l145 433h118l-217 -650h-95l-140 420l-139 -420h-95zM474 818h94l-55 -108h-90z" />
    <glyph glyph-name="wacute" unicode="&#x1e83;" horiz-adv-x="749" 
d="M10 460h111l98 -308l107 308h80l106 -308l98 308h112l-152 -460h-105l-100 294l-101 -294h-105zM370 635h94l-55 -108h-90z" />
    <glyph glyph-name="Wdieresis" unicode="&#x1e84;" horiz-adv-x="949" 
d="M18 650h118l148 -447l147 447h82l145 -433l145 433h118l-217 -650h-95l-140 420l-139 -420h-95zM325 750q0 22 15.5 35.5t35.5 13.5t36 -13.5t16 -35.5q0 -23 -16 -37q-16 -15 -36 -15t-35.5 14.5t-15.5 37.5zM511 750q0 22 15.5 35.5t35.5 13.5t35.5 -13.5t15.5 -35.5
q0 -24 -15 -38q-16 -14 -36 -14t-35.5 14t-15.5 38z" />
    <glyph glyph-name="wdieresis" unicode="&#x1e85;" horiz-adv-x="749" 
d="M10 460h111l98 -308l107 308h80l106 -308l98 308h112l-152 -460h-105l-100 294l-101 -294h-105zM221 567q0 22 15.5 35.5t35.5 13.5t36 -13.5t16 -35.5q0 -23 -16 -37q-16 -15 -36 -15t-35.5 14.5t-15.5 37.5zM423 603q15 13 35 13t35.5 -13.5t15.5 -35.5q0 -24 -15 -38
q-16 -14 -36 -14t-35.5 14t-15.5 38q0 22 16 36z" />
    <glyph glyph-name="uni1E92" unicode="&#x1e92;" horiz-adv-x="541" 
d="M38 94l317 453h-311v103h450v-94l-321 -453l314 -1v-102h-449v94zM213 -96q0 22 15.5 35.5t35.5 13.5t36 -13.5t16 -35.5q0 -23 -16 -38q-16 -14 -36 -14t-35.5 14.5t-15.5 37.5z" />
    <glyph glyph-name="uni1E93" unicode="&#x1e93;" horiz-adv-x="426" 
d="M28 0v81l215 290h-213v89h348v-81l-215 -290h213v-89h-348zM169 -61q15 14 35 14t36 -13.5t16 -35.5q0 -23 -16 -38q-16 -14 -36 -14t-35.5 14.5t-15.5 37.5q0 22 16 35z" />
    <glyph glyph-name="uni1EA0" unicode="&#x1ea0;" horiz-adv-x="659" 
d="M282 650h85l265 -650h-118l-50 125h-278l-50 -125h-118zM424 227l-99 248l-99 -248h198zM277 -96q0 22 15.5 35.5t35.5 13.5t36 -13.5t16 -35.5q0 -23 -16 -38q-16 -14 -36 -14t-35.5 14.5t-15.5 37.5z" />
    <glyph glyph-name="uni1EA1" unicode="&#x1ea1;" 
d="M31 230q0 104 62.5 170.5t158.5 66.5q94 0 145 -67v60h107v-460h-107v59q-52 -67 -145 -67q-96 0 -158.5 67.5t-62.5 170.5zM172 132q36 -39 95 -39t94.5 38.5t35.5 98.5t-35.5 98t-94.5 38t-95 -38t-36 -98t36 -98zM259 -64q15 14 35 14t36 -13.5t16 -35.5
q0 -23 -16 -38q-16 -14 -36 -14t-35.5 14.5t-15.5 37.5q0 22 16 35z" />
    <glyph glyph-name="uni1EB8" unicode="&#x1eb8;" horiz-adv-x="544" 
d="M48 650h433v-102h-322v-172h301v-102h-301v-172h322v-102h-433v650zM219 -94q0 22 15.5 35.5t35.5 13.5t36 -13.5t16 -35.5q0 -23 -16 -38q-16 -14 -36 -14t-35.5 14.5t-15.5 37.5z" />
    <glyph glyph-name="uni1EB9" unicode="&#x1eb9;" horiz-adv-x="532" 
d="M31 230q0 104 63 171t166 67q100 0 160.5 -67t60.5 -171v-30h-346q8 -54 43.5 -85.5t86.5 -31.5q81 0 120 56l74 -54q-30 -44 -81 -69t-113 -25q-104 0 -169 67.5t-65 171.5zM136 269h245q-9 51 -40.5 82.5t-80.5 31.5q-50 0 -82.5 -30.5t-41.5 -83.5zM211 -101
q0 22 15.5 35.5t35.5 13.5t36 -13.5t16 -35.5q0 -23 -16 -38q-16 -14 -36 -14t-35.5 14.5t-15.5 37.5z" />
    <glyph glyph-name="uni1EBC" unicode="&#x1ebc;" horiz-adv-x="544" 
d="M48 650h433v-102h-322v-172h301v-102h-301v-172h322v-102h-433v650zM140 785q25 31 70 31q43 0 73 -34q23 -25 43 -25q34 0 36 46h64q-1 -49 -26 -79.5t-74 -30.5q-43 0 -74 35q-22 24 -40 24t-26 -14t-8 -32h-64q1 48 26 79z" />
    <glyph glyph-name="uni1EBD" unicode="&#x1ebd;" horiz-adv-x="532" 
d="M31 230q0 104 63 171t166 67q100 0 160.5 -67t60.5 -171v-30h-346q8 -54 43.5 -85.5t86.5 -31.5q81 0 120 56l74 -54q-30 -44 -81 -69t-113 -25q-104 0 -169 67.5t-65 171.5zM130 602q25 31 70 31q43 0 73 -34q23 -25 43 -25q34 0 36 46h64q-1 -49 -26 -79.5t-74 -30.5
q-43 0 -74 35q-22 24 -40 24t-26 -14t-8 -32h-64q1 48 26 79zM136 269h245q-9 51 -40.5 82.5t-80.5 31.5q-50 0 -82.5 -30.5t-41.5 -83.5z" />
    <glyph glyph-name="uni1ECA" unicode="&#x1eca;" horiz-adv-x="226" 
d="M48 650h111v-650h-111v650zM68 -61q15 14 35 14t36 -13.5t16 -35.5q0 -23 -16 -38q-16 -14 -36 -14t-35.5 14.5t-15.5 37.5q0 22 16 35z" />
    <glyph glyph-name="uni1ECB" unicode="&#x1ecb;" horiz-adv-x="236" 
d="M163 460l-1 -460h-108v460h109zM66 642q18 16 42 16t42.5 -16t18.5 -43t-18 -44q-19 -17 -43 -17t-42 17t-18 44t18 43zM73 -69q15 14 35 14t36 -13.5t16 -35.5q0 -23 -16 -38q-16 -14 -36 -14t-35.5 14.5t-15.5 37.5q0 22 16 35z" />
    <glyph glyph-name="uni1ECC" unicode="&#x1ecc;" horiz-adv-x="742" 
d="M130 564q91 94 235 94t234.5 -93.5t90.5 -239.5t-90 -239q-91 -94 -235 -94t-235.5 94t-91.5 239t92 239zM209 166q60 -63 156 -63t154.5 62.5t58.5 159.5t-58.5 159.5t-154.5 62.5t-156 -62.5t-60 -159.5t60 -159zM314 -103q0 22 15.5 35.5t35.5 13.5t36 -13.5t16 -35.5
q0 -23 -16 -38q-16 -14 -36 -14t-35.5 14.5t-15.5 37.5z" />
    <glyph glyph-name="uni1ECD" unicode="&#x1ecd;" horiz-adv-x="555" 
d="M98 402q66 67 170 67t170 -67t66 -172q0 -103 -66 -171t-170 -68t-170.5 68t-66.5 171q0 104 67 172zM174 132q36 -39 94 -39t93.5 39t35.5 98t-35.5 97.5t-93.5 38.5t-94 -38.5t-36 -97.5t36 -98zM217 -104q0 22 15.5 35.5t35.5 13.5t36 -13.5t16 -35.5q0 -23 -16 -38
q-16 -14 -36 -14t-35.5 14.5t-15.5 37.5z" />
    <glyph glyph-name="uni1EE4" unicode="&#x1ee4;" horiz-adv-x="614" 
d="M48 650h111v-410q0 -69 38 -104.5t100 -35.5t100 35.5t38 104.5v410h112v-422q0 -101 -67 -168.5t-183 -67.5t-182.5 67.5t-66.5 168.5v422zM246 -98q0 22 15.5 35.5t35.5 13.5t36 -13.5t16 -35.5q0 -23 -16 -38q-16 -14 -36 -14t-35.5 14.5t-15.5 37.5z" />
    <glyph glyph-name="uni1EE5" unicode="&#x1ee5;" horiz-adv-x="538" 
d="M155 460v-266q0 -57 32 -83.5t73 -26.5t72 26.5t31 83.5v266h108v-460h-108v48q-48 -56 -135 -56q-74 0 -127 45.5t-53 140.5v282h107zM225 -66q15 14 35 14t36 -13.5t16 -35.5q0 -23 -16 -38q-16 -14 -36 -14t-35.5 14.5t-15.5 37.5q0 22 16 35z" />
    <glyph glyph-name="Ygrave" unicode="&#x1ef2;" horiz-adv-x="612" 
d="M139 650l159 -255l159 255h128l-231 -370v-280h-111v277l-232 373h128zM294 818l51 -108h-90l-55 108h94z" />
    <glyph glyph-name="ygrave" unicode="&#x1ef3;" horiz-adv-x="505" 
d="M120 460l122 -311l124 311h112l-256 -644h-105l73 184l-181 460h111zM144 635h94l51 -108h-90z" />
    <glyph glyph-name="uni1EF4" unicode="&#x1ef4;" horiz-adv-x="612" 
d="M11 650h128l159 -255l159 255h128l-231 -370v-280h-111v277zM263 -61q15 14 35 14t36 -13.5t16 -35.5q0 -23 -16 -38q-16 -14 -36 -14t-35.5 14.5t-15.5 37.5q0 22 16 35z" />
    <glyph glyph-name="uni1EF5" unicode="&#x1ef5;" horiz-adv-x="505" 
d="M120 460l122 -311l124 311h112l-256 -644h-105l73 184l-181 460h111zM305 -126q0 22 15.5 35.5t35.5 13.5t36 -13.5t16 -35.5q0 -23 -16 -38q-16 -14 -36 -14t-35.5 14.5t-15.5 37.5z" />
    <glyph glyph-name="uni1EF8" unicode="&#x1ef8;" horiz-adv-x="612" 
d="M11 650h128l159 -255l159 255h128l-231 -370v-280h-111v277zM142 706q1 48 26 79t70 31q43 0 73 -34q23 -25 43 -25q34 0 36 46h64q-1 -49 -26 -79.5t-74 -30.5q-43 0 -74 35q-22 24 -40 24t-26 -14t-8 -32h-64z" />
    <glyph glyph-name="uni1EF9" unicode="&#x1ef9;" horiz-adv-x="505" 
d="M120 460l122 -311l124 311h112l-256 -644h-105l73 184l-181 460h111zM86 523q1 48 26 79t70 31q43 0 73 -34q23 -25 43 -25q34 0 36 46h64q-1 -49 -26 -79.5t-74 -30.5q-43 0 -74 35q-22 24 -40 24t-26 -14t-8 -32h-64z" />
    <glyph glyph-name="endash" unicode="&#x2013;" horiz-adv-x="493" 
d="M48 335h378v-102h-378v102z" />
    <glyph glyph-name="emdash" unicode="&#x2014;" horiz-adv-x="601" 
d="M48 334h485v-102h-485v102z" />
    <glyph glyph-name="quoteleft" unicode="&#x2018;" horiz-adv-x="197" 
d="M135 488h-107l62 162h79z" />
    <glyph glyph-name="quoteright" unicode="&#x2019;" horiz-adv-x="197" 
d="M61 650h108l-63 -162h-78z" />
    <glyph glyph-name="quotesinglbase" unicode="&#x201a;" horiz-adv-x="197" 
d="M61 74h108l-63 -160h-78z" />
    <glyph glyph-name="quotedblleft" unicode="&#x201c;" horiz-adv-x="382" 
d="M135 488h-107l62 162h79zM320 488h-107l62 162h79z" />
    <glyph glyph-name="quotedblright" unicode="&#x201d;" horiz-adv-x="382" 
d="M61 650h108l-63 -162h-78zM247 650h107l-62 -162h-79z" />
    <glyph glyph-name="quotedblbase" unicode="&#x201e;" horiz-adv-x="382" 
d="M61 74h108l-63 -162h-78zM247 74h107l-62 -162h-79z" />
    <glyph glyph-name="dagger" unicode="&#x2020;" horiz-adv-x="433" 
d="M365 467v-83h-107v-384h-102v384h-108v83h108v183h102v-183h107z" />
    <glyph glyph-name="daggerdbl" unicode="&#x2021;" horiz-adv-x="433" 
d="M365 397h-107v-137h107v-84h-107v-176h-102v176h-108v84h108v137h-108v84h108v169h102v-169h107v-84z" />
    <glyph glyph-name="bullet" unicode="&#x2022;" horiz-adv-x="244" 
d="M122 231q-41 0 -67.5 26.5t-26.5 67.5t26.5 67.5t67.5 26.5t67.5 -26.5t26.5 -67.5t-26.5 -67.5t-67.5 -26.5z" />
    <glyph glyph-name="ellipsis" unicode="&#x2026;" horiz-adv-x="583" 
d="M86 -5q-25 0 -41.5 16.5t-16.5 42.5t16 42t42 16t42.5 -16.5t16.5 -41.5q0 -26 -16.5 -42.5t-42.5 -16.5zM293 -5q-25 0 -41.5 16.5t-16.5 42.5t16.5 42t41.5 16q26 0 42.5 -16.5t16.5 -41.5q0 -26 -17 -42.5t-42 -16.5zM497 -5q-25 0 -41.5 16.5t-16.5 42.5t16.5 42
t41.5 16q26 0 42.5 -16.5t16.5 -41.5q0 -26 -17 -42.5t-42 -16.5z" />
    <glyph glyph-name="perthousand" unicode="&#x2030;" horiz-adv-x="1228" 
d="M201 342q-67 0 -110 44t-43 112q0 69 43 113t110 44q66 0 109 -44t43 -113q0 -67 -43.5 -111.5t-108.5 -44.5zM282 0h-85l351 650h85zM201 414q36 0 58 23.5t22 60.5t-22 61t-58 24t-58.5 -24t-22.5 -61t22.5 -60.5t58.5 -23.5zM629 -6q-66 0 -109.5 44.5t-43.5 111.5
q0 69 43.5 113t109.5 44t109.5 -44t43.5 -113q0 -67 -43.5 -111.5t-109.5 -44.5zM1009 -6q-67 0 -110.5 44t-43.5 112q0 69 43.5 113t110.5 44q66 0 109 -44t43 -113q0 -67 -43.5 -111.5t-108.5 -44.5zM629 66q36 0 58.5 23.5t22.5 60.5t-22.5 61t-58.5 24t-58.5 -24
t-22.5 -61q0 -36 22.5 -60t58.5 -24zM1009 66q36 0 58 24t22 60q0 37 -22 61t-58 24t-59 -24t-23 -61q0 -36 23 -60t59 -24z" />
    <glyph glyph-name="guilsinglleft" unicode="&#x2039;" horiz-adv-x="377" 
d="M329 135h-129l-172 186l172 186h129l-171 -186z" />
    <glyph glyph-name="guilsinglright" unicode="&#x203a;" horiz-adv-x="377" 
d="M28 135l171 186l-171 186h129l172 -186l-172 -186h-129z" />
    <glyph glyph-name="fraction" unicode="&#x2044;" horiz-adv-x="496" 
d="M75 0h-55l401 650h55z" />
    <glyph glyph-name="uni2070" unicode="&#x2070;" horiz-adv-x="418" 
d="M204 253q-75 0 -120.5 56.5t-45.5 145.5q0 90 45 146.5t121 56.5q75 0 121 -57t46 -146t-46 -145.5t-121 -56.5zM204 319q43 0 70.5 36.5t27.5 99.5q0 64 -27.5 99.5t-70.5 35.5t-71 -36t-28 -99t28 -99.5t71 -36.5z" />
    <glyph glyph-name="uni2074" unicode="&#x2074;" horiz-adv-x="379" 
d="M341 382v-49h-46v-75h-67v75h-200v43l200 274h67v-268h46zM94 382h134v182z" />
    <glyph glyph-name="uni2075" unicode="&#x2075;" horiz-adv-x="363" 
d="M158 515q76 0 114.5 -36t38.5 -92q0 -61 -41.5 -95.5t-106.5 -34.5q-85 0 -135 57l44 47q34 -39 87 -39q36 0 60 18t24 51q0 32 -25 50.5t-62 18.5q-44 0 -74 -16l-21 41l29 169h204v-61h-151l-14 -80q20 2 29 2z" />
    <glyph glyph-name="uni2076" unicode="&#x2076;" horiz-adv-x="369" 
d="M178 536q60 0 99.5 -40.5t39.5 -101.5q0 -60 -39.5 -101t-99.5 -41t-100 41t-40 101q0 48 25 84l113 172h73l-74 -114h3zM178 316q33 0 54.5 22t21.5 56t-21.5 56.5t-54.5 22.5q-34 0 -55.5 -22t-21.5 -57q0 -34 21.5 -56t55.5 -22z" />
    <glyph glyph-name="uni2077" unicode="&#x2077;" horiz-adv-x="310" 
d="M43 258l152 330h-171v61h249v-45l-159 -346h-71z" />
    <glyph glyph-name="uni2078" unicode="&#x2078;" horiz-adv-x="373" 
d="M262 461q58 -30 58 -92q0 -53 -36 -85.5t-105 -32.5q-68 0 -104.5 33t-36.5 85q0 62 59 92q-52 30 -52 88q0 43 34 75t100 32t100.5 -32t34.5 -75q0 -57 -52 -88zM179 605q-35 0 -54 -17.5t-19 -42.5q0 -26 18.5 -43t54.5 -17t54.5 17t18.5 43q0 25 -18.5 42.5
t-54.5 17.5zM179 307q37 0 57 18t20 47q0 28 -20 46.5t-57 18.5q-36 0 -56 -18.5t-20 -46.5t20 -46.5t56 -18.5z" />
    <glyph glyph-name="uni2079" unicode="&#x2079;" horiz-adv-x="369" 
d="M317 513q0 -47 -25 -84l-112 -172h-73l73 114h-3q-60 0 -99.5 40.5t-39.5 101.5q0 60 39.5 101t99.5 41t100 -41t40 -101zM177 434q38 0 61 29l1 2q15 22 15 48q0 34 -21.5 56t-55.5 22q-33 0 -54.5 -22t-21.5 -56t21.5 -56.5t54.5 -22.5z" />
    <glyph glyph-name="Euro" unicode="&#x20ac;" horiz-adv-x="579" 
d="M463 556q-66 0 -118 -29.5t-77 -90.5h190v-58h-206q-4 -21 -4 -53q0 -22 4 -56h206v-58h-189q26 -59 77.5 -88t116.5 -29q29 0 49 2v-102q-20 -2 -68 -2q-108 0 -184 59t-105 160h-107v58h95q-3 27 -3 56q0 27 3 53h-95v58h106q28 102 105 162t185 60h18.5h31h18.5v-102
h-14h-21h-14z" />
    <glyph glyph-name="trademark" unicode="&#x2122;" horiz-adv-x="1342" 
d="M636 650h114l205 -409l206 409h114v-650h-112v427l-169 -351h-77l-170 352v-428h-111v650zM540 650v-102h-200v-548h-112v548h-200v102h512z" />
    <glyph glyph-name="oneeighth" unicode="&#x215b;" horiz-adv-x="536" 
d="M140 650v-328h-57v277h-72v51h129zM69 0h-55l401 650h55zM474 167q48 -25 48 -76q0 -43 -30 -70t-86 -27t-86 27t-30 70q0 51 49 76q-44 25 -44 72q0 35 28.5 61.5t82.5 26.5t82 -26.5t28 -61.5q0 -47 -42 -72zM406 285q-29 0 -44.5 -14.5t-15.5 -34.5q0 -21 15 -35.5
t45 -14.5t45 14.5t15 35.5q0 20 -15.5 34.5t-44.5 14.5zM406 40q30 0 46.5 15t16.5 38t-16.5 38.5t-46.5 15.5t-46.5 -15.5t-16.5 -38.5q0 -22 16.5 -37.5t46.5 -15.5z" />
    <glyph glyph-name="threeeighths" unicode="&#x215c;" horiz-adv-x="617" 
d="M161 533q38 -8 63.5 -32t25.5 -68q0 -54 -36.5 -82.5t-88.5 -28.5q-35 0 -65.5 13.5t-45.5 35.5l35 37q24 -32 76 -32q31 0 50 15.5t19 41.5q0 27 -19 42.5t-50 15.5q-29 0 -57 -9l1 40l95 77h-128v51h206v-47zM139 0h-55l401 650h55zM555 167q48 -25 48 -76
q0 -43 -30 -70t-86 -27t-86 27t-30 70q0 51 49 76q-44 25 -44 72q0 35 28.5 61.5t82.5 26.5t82 -26.5t28 -61.5q0 -47 -42 -72zM487 285q-29 0 -44.5 -14.5t-15.5 -34.5q0 -21 15 -35.5t45 -14.5t45 14.5t15 35.5q0 20 -15.5 34.5t-44.5 14.5zM487 40q30 0 46.5 15t16.5 38
t-16.5 38.5t-46.5 15.5t-46.5 -15.5t-16.5 -38.5q0 -22 16.5 -37.5t46.5 -15.5z" />
    <glyph glyph-name="fiveeighths" unicode="&#x215d;" horiz-adv-x="621" 
d="M123 538q64 0 96.5 -30t32.5 -77q0 -51 -34.5 -80t-89.5 -29q-72 0 -114 48l37 39q28 -32 73 -32q31 0 51 15t20 42t-21 42.5t-52 15.5q-39 0 -62 -13l-18 34l24 142h172v-51h-127l-12 -67q9 1 24 1zM143 0h-55l401 650h55zM560 167q48 -25 48 -76q0 -43 -30 -70t-86 -27
t-86 27t-30 70q0 51 49 76q-44 25 -44 72q0 35 28.5 61.5t82.5 26.5t82 -26.5t28 -61.5q0 -47 -42 -72zM492 285q-29 0 -44.5 -14.5t-15.5 -34.5q0 -21 15 -35.5t45 -14.5t45 14.5t15 35.5q0 20 -15.5 34.5t-44.5 14.5zM492 40q30 0 46.5 15t16.5 38t-16.5 38.5t-46.5 15.5
t-46.5 -15.5t-16.5 -38.5q0 -22 16.5 -37.5t46.5 -15.5z" />
    <glyph glyph-name="seveneighths" unicode="&#x215e;" horiz-adv-x="553" 
d="M69 0h-55l401 650h55zM58 323l127 276h-143v51h208v-38l-133 -289h-59zM491 167q48 -25 48 -76q0 -43 -30 -70t-86 -27t-86 27t-30 70q0 51 49 76q-44 25 -44 72q0 35 28.5 61.5t82.5 26.5t82 -26.5t28 -61.5q0 -47 -42 -72zM423 285q-29 0 -44.5 -14.5t-15.5 -34.5
q0 -21 15 -35.5t45 -14.5t45 14.5t15 35.5q0 20 -15.5 34.5t-44.5 14.5zM423 40q30 0 46.5 15t16.5 38t-16.5 38.5t-46.5 15.5t-46.5 -15.5t-16.5 -38.5q0 -22 16.5 -37.5t46.5 -15.5z" />
    <glyph glyph-name="arrowleft" unicode="&#x2190;" horiz-adv-x="754" 
d="M687 372v-101h-457l152 -153l-66 -65l-268 269l268 268l66 -65l-153 -153h458z" />
    <glyph glyph-name="arrowup" unicode="&#x2191;" horiz-adv-x="652" 
d="M585 375l-66 -65l-152 151v-457h-102v457l-152 -152l-65 66l268 268z" />
    <glyph glyph-name="arrowright" unicode="&#x2192;" horiz-adv-x="754" 
d="M418 590l269 -268l-269 -269l-65 65l152 153h-457v101h458l-153 153z" />
    <glyph glyph-name="arrowdown" unicode="&#x2193;" horiz-adv-x="652" 
d="M519 338l66 -66l-269 -268l-268 269l65 65l152 -152v457h102v-457z" />
    <glyph glyph-name="arrowboth" unicode="&#x2194;" horiz-adv-x="963" 
d="M638 590l269 -268l-269 -269l-65 65l151 153h-498l152 -153l-66 -65l-268 269l268 268l66 -65l-153 -153h501l-153 153z" />
    <glyph glyph-name="arrowupdn" unicode="&#x2195;" horiz-adv-x="624" 
d="M557 201l-256 -257l-252 253l65 65l136 -134v391l-137 -136l-65 65l253 254l256 -254l-65 -65l-141 138v-395l141 140z" />
    <glyph glyph-name="uni2196" unicode="&#x2196;" horiz-adv-x="606" 
d="M538 231l-72 -72l-326 326v-215h-92v380h380v-93h-215z" />
    <glyph glyph-name="uni2197" unicode="&#x2197;" horiz-adv-x="606" 
d="M158 650h380v-380h-92v215l-326 -326l-72 72l325 326h-215v93z" />
    <glyph glyph-name="uni2198" unicode="&#x2198;" horiz-adv-x="606" 
d="M446 380h92v-380h-380v93h216l-326 326l72 72l326 -326v215z" />
    <glyph glyph-name="uni2199" unicode="&#x2199;" horiz-adv-x="606" 
d="M538 419l-326 -326h216v-93h-380v380h92v-215l326 326z" />
    <glyph glyph-name="partialdiff" unicode="&#x2202;" horiz-adv-x="567" 
d="M499 215q0 -101 -64.5 -165t-161.5 -64t-161 64t-64 165t64 164.5t161 63.5q10 0 28 -2q-82 131 -180 209h119q82 -64 159.5 -175t92.5 -196q7 -35 7 -64zM273 88q54 0 89 35.5t35 91.5t-35 91t-89 35q-53 0 -88 -35t-35 -91t35 -91.5t88 -35.5z" />
    <glyph glyph-name="emptyset" unicode="&#x2205;" horiz-adv-x="575" 
d="M423 511q85 -66 85 -190q0 -104 -63.5 -170.5t-165.5 -66.5q-59 0 -105 23l-26 -42h-56l41 67q-85 67 -85 189q0 104 64 170.5t167 66.5q55 0 104 -22l25 41h56zM131 321q0 -74 47 -116l160 259q-28 11 -59 11q-66 0 -107 -43.5t-41 -110.5zM279 167q65 0 105 43.5
t40 110.5q0 73 -46 117l-160 -259q27 -12 61 -12z" />
    <glyph glyph-name="product" unicode="&#x220f;" horiz-adv-x="651" 
d="M583 650v-102h-101v-548h-102v548h-127v-548h-102v548h-103v102h535z" />
    <glyph glyph-name="summation" unicode="&#x2211;" horiz-adv-x="561" 
d="M493 658v-102h-297l197 -234l-193 -228h293v-102h-445v89l207 241l-207 246v90h445z" />
    <glyph glyph-name="minus" unicode="&#x2212;" horiz-adv-x="512" 
d="M48 360h397v-83h-397v83z" />
    <glyph glyph-name="radical" unicode="&#x221a;" horiz-adv-x="750" 
d="M682 692v-83h-159l-240 -657h-104l-131 355h102l81 -219l220 604h231z" />
    <glyph glyph-name="infinity" unicode="&#x221e;" horiz-adv-x="833" 
d="M202 173q-65 0 -109.5 44.5t-44.5 105.5t44.5 105t109.5 44q56 0 97 -19.5t111 -79.5q66 60 111 79.5t90 19.5q67 0 111 -44t44 -105q0 -62 -44 -106t-111 -44q-54 0 -92 20t-109 84q-67 -63 -108.5 -83.5t-99.5 -20.5zM202 247q69 0 146 77q-54 47 -84.5 60.5
t-61.5 13.5t-57.5 -19.5t-26.5 -55.5q0 -37 26.5 -56.5t57.5 -19.5zM611 247q32 0 58 19.5t26 56.5q0 36 -26 55.5t-58 19.5t-60.5 -13t-77.5 -60q46 -44 75.5 -61t62.5 -17z" />
    <glyph glyph-name="integral" unicode="&#x222b;" horiz-adv-x="544" 
d="M390 692h87v-82h-55q-77 0 -85 -84l-46 -426q-8 -73 -52 -110.5t-105 -37.5h-86v83h53q75 0 85 84l46 417q8 78 53.5 117t104.5 39z" />
    <glyph glyph-name="approxequal" unicode="&#x2248;" horiz-adv-x="589" 
d="M438 493h83q0 -71 -38 -116.5t-109 -45.5q-26 0 -49.5 9t-34.5 17.5t-28 24.5q-2 1 -9 8l-8.5 8.5t-7.5 6.5t-8.5 6t-8 4.5t-9 4t-8.5 1.5t-11 1q-30 0 -45.5 -22t-15.5 -53h-83q0 71 37 116.5t105 45.5q8 0 16.5 -1t14.5 -2.5t13.5 -4.5t12 -4.5t11.5 -6t10 -6.5
t9.5 -7.5t8 -7t8 -7.5t7.5 -7q43 -40 73 -40q26 0 45 18t19 60zM438 296h83q0 -71 -38 -116t-109 -45q-26 0 -49.5 9t-34.5 17.5t-28 24.5q-2 2 -9 8.5t-8.5 8t-7.5 6.5t-8.5 6t-8 4.5t-9 4t-8.5 1.5t-11 1q-29 0 -45 -22.5t-16 -52.5h-83q0 71 37 116t105 45q26 0 50 -10.5
t33 -17.5t28 -25q43 -40 73 -40q26 0 45 17.5t19 59.5z" />
    <glyph glyph-name="notequal" unicode="&#x2260;" horiz-adv-x="512" 
d="M445 381h-135l-48 -120h183v-83h-217l-37 -93h-79l37 93h-101v83h134l49 120h-183v83h216l37 93h80l-37 -93h101v-83z" />
    <glyph glyph-name="lessequal" unicode="&#x2264;" horiz-adv-x="448" 
d="M381 514v-77l-215 -62l215 -62v-77l-330 98v82zM48 129v70h333v-70h-333z" />
    <glyph glyph-name="greaterequal" unicode="&#x2265;" horiz-adv-x="448" 
d="M378 334l-330 -98v77l215 62l-215 62v77l330 -98v-82zM48 199h333v-70h-333v70z" />
    <glyph glyph-name="lozenge" unicode="&#x25ca;" horiz-adv-x="633" 
d="M359 650l207 -328l-203 -322h-112l-203 322l207 328h104zM307 73l157 249l-157 249l-157 -249z" />
    <glyph glyph-name="A.ss01" horiz-adv-x="659" 
d="M632 0h-118l-189 471l-189 -471h-118l264 650h85z" />
    <glyph glyph-name="I.ss01" horiz-adv-x="412" 
d="M365 548h-113v-446h113v-102h-337v102h112v446h-112v102h337v-102z" />
    <glyph glyph-name="J.ss01" horiz-adv-x="593" 
d="M525 650v-417q0 -110 -70.5 -175.5t-183.5 -65.5q-97 0 -160.5 48.5t-82.5 120.5l107 41q13 -51 49.5 -76.5t86.5 -25.5q63 0 103 38t40 112v297h-257v103h368z" />
    <glyph glyph-name="R.ss01" horiz-adv-x="607" 
d="M407 200q29 -49 64 -74.5t88 -25.5v-102q-97 0 -156.5 37t-115.5 134l-37 64h-91v-233h-111v650h310q79 0 135 -56.5t56 -152.5q0 -86 -46.5 -141t-116.5 -65zM159 542v-201h179q43 0 71.5 28t28.5 72t-28.5 72.5t-71.5 28.5h-179z" />
    <glyph glyph-name="i.loclTRK" horiz-adv-x="231" 
d="M51 460h108v-460h-108v460zM70 603q15 13 35 13t36 -13.5t16 -35.5q0 -23 -16 -37q-16 -15 -36 -15t-35.5 14.5t-15.5 37.5q0 22 16 36z" />
    <glyph glyph-name="a.ss01" horiz-adv-x="527" 
d="M31 128q0 33 12 58t37.5 40.5t51.5 25t68 13.5t73 5t79 1v13q0 49 -31 74t-77 25q-85 0 -112 -60l-85 36q19 46 69 78t129 32q104 0 159 -47t55 -135v-287h-107v47q-46 -55 -137 -55q-96 0 -140 38t-44 98zM229 70q61 0 92 29.5t31 76.5v35q-119 -2 -167.5 -16.5
t-48.5 -59.5q0 -65 93 -65z" />
    <glyph glyph-name="n.ss01" horiz-adv-x="539" 
d="M48 460h237q81 0 134 -45t53 -130v-285h-108v260q0 59 -28 86.5t-89 27.5h-92v-374h-107v460z" />
    <glyph glyph-name="r.ss01" horiz-adv-x="323" 
d="M48 0v251q0 214 237 216v-102q-130 -2 -130 -136v-229h-107z" />
    <glyph glyph-name="u.ss01" horiz-adv-x="539" 
d="M48 175v285h107v-260q0 -59 28 -86.5t89 -27.5h92v374h108v-460h-237q-81 0 -134 45t-53 130z" />
    </font>
</defs>
</svg>
